<?xml version="1.0" standalone="no"?>
<!DOCTYPE svg PUBLIC "-//W3C//DTD SVG 1.1//EN" "http://www.w3.org/Graphics/SVG/1.1/DTD/svg11.dtd">
<svg xmlns="http://www.w3.org/2000/svg">
<defs >
<font id="Barlow" horiz-adv-x="509" ><font-face
    font-family="Barlow Light"
    units-per-em="1000"
    panose-1="0 0 4 0 0 0 0 0 0 0"
    ascent="1000"
    descent="-200"
    alphabetic="0" />
<glyph unicode=" " glyph-name="space" horiz-adv-x="200" />
<glyph unicode="!" glyph-name="exclam" horiz-adv-x="313" d="M135 225T135 235L132 690Q132 700 142 700H175Q185 700 185 690L181 235Q181 225 171 225H145Q135 225 135 235ZM133 4T119 18T105 54Q105 76 119 90T155 104Q177 104 191 90T205 54Q205 32 191
18T155 4Q133 4 119 18Z" />
<glyph unicode="&quot;" glyph-name="quotedbl" horiz-adv-x="238" d="M39 493T39 503L33 683Q33 693 43 693H78Q88 693 88 683L82 503Q82 493 72 493H49Q39 493 39 503ZM157 493T157 503L151 683Q151 693 161 693H196Q206 693 206 683L200 503Q200 493 190 493H167Q157
493 157 503Z" />
<glyph unicode="#" glyph-name="numbersign" horiz-adv-x="652" d="M573 436T563 436H487Q482 436 482 432L455 257Q455 253 458 253H527Q537 253 537 243L536 216Q536 206 526 206H451Q446 206 446 202L418 23Q417 14 408 14L375 15Q371 15 368 18T366 26L393
202Q393 206 390 206H216Q211 206 211 202L183 23Q182 14 173 14L140 15Q136 15 133 18T131 26L158 202Q158 206 155 206H89Q79 206 79 216L80 243Q80 253 90 253H162Q167 253 167 257L194 432Q194 436 191 436H125Q115 436 115 446L116 473Q116 483 126 483H198Q203
483 203 487L231 667Q232 676 241 676L274 674Q279 674 281 671T283 664L256 487Q256 483 259 483H433Q438 483 438 487L466 667Q467 676 476 676L509 674Q514 674 516 671T518 664L491 487Q491 483 494 483H563Q573 483 573 473V446Q573 436 563 436ZM402 253T402
257L429 432Q429 436 426 436H252Q247 436 247 432L220 257Q220 253 223 253H397Q402 253 402 257Z" />
<glyph unicode="$" glyph-name="dollar" horiz-adv-x="556" d="M497 95T448 48T308 -7Q304 -7 304 -11L305 -85Q305 -95 295 -95H266Q256 -95 256 -85L257 -11Q257 -7 253 -7Q161 0 109 48T57 174V207Q57 217 67 217H95Q105 217 105 207V177Q105 115 153 77T286
39Q364 39 405 74T447 169Q447 206 429 233T373 285T264 340Q190 373 153 395T93 450T70 537Q70 614 116 658T248 707Q252 707 252 711L251 790Q251 800 261 800H289Q299 800 299 790L298 711Q298 707 302 707Q392 699 441 651T491 524V501Q491 491 481 491H451Q441
491 441 501V521Q441 584 396 622T269 661Q197 661 158 630T119 539Q119 499 137 474T188 431T292 382Q362 352 405 325T472 260T497 171Q497 95 448 48Z" />
<glyph unicode="%" glyph-name="percent" horiz-adv-x="854" d="M204 433T172 451T121 502T102 572Q102 609 121 641T172 691T242 710Q280 710 312 692T362 641T381 572Q381 534 363 502T312 452T242 433Q204 433 172 451ZM218 0T216 3T217 12L596 693Q601 700
608 700H628Q634 700 636 697T635 688L257 7Q254 0 245 0H224Q218 0 216 3ZM284 470T313 500T343 572Q343 614 314 643T242 673Q200 673 171 644T141 572Q141 529 170 500T242 470Q284 470 313 500ZM576 -10T544 8T493 59T474 129Q474 167 492 198T543 248T614
267Q652 267 684 249T734 198T753 129Q753 91 735 59T684 9T614 -10Q576 -10 544 8ZM656 27T685 57T715 129Q715 171 686 200T614 230Q571 230 542 201T512 129Q512 86 541 57T614 27Q656 27 685 57Z" />
<glyph unicode="&amp;" glyph-name="ampersand" horiz-adv-x="647" d="M580 10T580 6Q580 4 578 2T572 0H533Q527 0 521 6Q504 25 481 54L457 82Q454 85 451 82Q403 34 356 13T248 -8Q161 -8 109 33T57 150Q57 219 97 269T210 371Q213 373 210 376Q150 451 131
487T111 561Q111 627 154 667T270 708Q342 708 388 668T434 563Q434 503 397 459T289 363Q286 361 289 358L307 336Q330 308 397 229L452 162Q455 159 458 162Q499 213 525 249Q531 257 539 252L563 238Q572 232 566 224Q521 161 489 124V122Q489 118 494 113Q548
45 578 12Q580 10 580 6ZM223 658T194 632T164 558Q164 532 180 502T251 404Q254 401 257 403Q318 445 349 481T381 563Q381 606 351 632T272 658Q223 658 194 632ZM297 39T337 58T420 120Q423 123 420 126L360 197L340 221L248 330Q247 333 243 331Q179 285 145
245T110 152Q110 98 146 69T247 39Q297 39 337 58Z" />
<glyph unicode="&apos;" glyph-name="quotesingle" horiz-adv-x="122" d="M39 498T39 508L33 688Q33 698 43 698H80Q90 698 90 688L84 508Q84 498 74 498H49Q39 498 39 508Z" />
<glyph unicode="(" glyph-name="parenleft" horiz-adv-x="238" d="M101 -107T97 -101Q51 -27 23 87T-6 323Q-6 449 23 566T100 758Q104 764 112 764H142Q148 764 150 761T149 752Q108 675 82 561T55 325Q55 205 81 93T149 -95Q151 -99 151 -101Q151 -107 142 -107H109Q101
-107 97 -101Z" />
<glyph unicode=")" glyph-name="parenright" horiz-adv-x="238" d="M137 764T141 758Q187 684 215 570T244 334Q244 208 215 91T138 -101Q134 -107 126 -107H97Q91 -107 89 -104T90 -95Q131 -20 157 95T183 332Q183 451 157 564T90 752Q88 756 88 758Q88 764 97
764H129Q137 764 141 758Z" />
<glyph unicode="*" glyph-name="asterisk" horiz-adv-x="397" d="M180 393T180 403V533Q180 535 179 536T175 536L58 469Q56 468 53 468Q47 468 44 473L37 487Q36 489 36 492Q36 498 41 501L157 567Q159 568 159 570T157 573L41 639Q37 641 36 645T37 653L44 667Q46
671 50 672T58 671L175 604Q177 603 178 604T180 607V737Q180 747 190 747H207Q217 747 217 737V607Q217 605 218 604T222 604L338 671Q340 672 343 672Q349 672 352 667L360 653Q361 651 361 648Q361 642 356 639L240 573Q239 572 239 570T240 567L356 501Q360
499 361 495T360 487L352 473Q350 469 346 468T338 469L222 536Q220 537 219 536T217 533V403Q217 393 207 393H190Q180 393 180 403Z" />
<glyph unicode="+" glyph-name="plus" horiz-adv-x="504" d="M462 339T462 329V303Q462 293 452 293H279Q275 293 275 289V120Q275 110 265 110H239Q229 110 229 120V289Q229 293 225 293H52Q42 293 42 303V329Q42 339 52 339H225Q229 339 229 343V521Q229 531
239 531H265Q275 531 275 521V343Q275 339 279 339H452Q462 339 462 329Z" />
<glyph unicode="," glyph-name="comma" horiz-adv-x="264" d="M78 -74T76 -71T74 -63L121 145Q123 154 132 154H160Q165 154 167 151T169 143L115 -65Q114 -74 104 -74H83Q78 -74 76 -71Z" />
<glyph unicode="-" glyph-name="hyphen" horiz-adv-x="391" d="M42 291T42 301V328Q42 338 52 338H339Q349 338 349 328V301Q349 291 339 291H52Q42 291 42 301Z" />
<glyph unicode="." glyph-name="period" horiz-adv-x="280" d="M117 4T103 18T89 54Q89 76 103 90T139 104Q161 104 175 90T189 54Q189 32 175 18T139 4Q117 4 103 18Z" />
<glyph unicode="/" glyph-name="slash" horiz-adv-x="382" d="M33 0T36 11L247 692Q250 700 259 700H291Q302 700 299 689L88 8Q85 0 76 0H44Q33 0 36 11Z" />
<glyph unicode="0" glyph-name="zero" horiz-adv-x="563" d="M188 -10T133 43T77 186V514Q77 603 132 656T280 709Q373 709 429 656T486 514V186Q486 97 430 44T280 -10Q188 -10 133 43ZM350 38T391 77T433 182V517Q433 582 392 622T280 662Q212 662 171 622T130
517V182Q130 117 171 78T280 38Q350 38 391 77Z" />
<glyph unicode="1" glyph-name="one" horiz-adv-x="349" d="M192 700T200 700H236Q246 700 246 690V10Q246 0 236 0H203Q193 0 193 10V635Q193 637 192 638T188 638L80 590Q78 589 75 589Q69 589 68 596L64 620V622Q64 629 70 632L187 697Q192 700 200 700Z" />
<glyph unicode="2" glyph-name="two" horiz-adv-x="530" d="M129 47T134 47H458Q468 47 468 37V10Q468 0 458 0H73Q63 0 63 10V38Q63 45 67 50Q110 103 144 147T205 225L296 341Q390 463 390 534Q390 591 352 626T251 661Q189 661 152 626T115 534V502Q115 492
105 492H72Q62 492 62 502V540Q63 615 115 661T251 708Q309 708 352 686T420 625T444 535Q444 449 348 324Q279 234 152 77L132 52Q129 47 134 47Z" />
<glyph unicode="3" glyph-name="three" d="M438 279T438 211Q438 157 424 115Q405 55 360 24T246 -8Q177 -8 130 28T64 126Q54 156 54 199Q54 209 64 209H98Q108 209 108 199Q108 165 114 144Q124 96 159 68T246 39Q343 39 372 127Q385 164 385 212Q385 274 367
316Q335 394 245 394Q233 394 215 388L211 386Q210 385 208 385Q203 385 200 390L183 412Q181 416 181 418Q181 423 184 426L363 648Q365 650 364 651T361 653H68Q58 653 58 663V690Q58 700 68 700H425Q435 700 435 690V657Q435 650 431 645L264 435Q262 433 263
432T267 430Q323 428 361 403T418 330Q438 279 438 211Z" />
<glyph unicode="4" glyph-name="four" horiz-adv-x="537" d="M473 244T473 234V206Q473 196 463 196H421Q417 196 417 192V10Q417 0 407 0H374Q364 0 364 10V192Q364 196 360 196H63Q53 196 53 206V232Q53 237 56 244L267 693Q270 700 278 700H312Q317 700 319
697T319 688L113 249Q112 247 113 246T116 244H360Q364 244 364 248V418Q364 428 374 428H407Q417 428 417 418V248Q417 244 421 244H463Q473 244 473 234Z" />
<glyph unicode="5" glyph-name="five" horiz-adv-x="508" d="M453 262T453 214Q453 164 446 133Q430 68 381 30T261 -8Q193 -8 145 28T79 124Q72 147 71 165Q71 175 81 175H115Q125 175 125 165L129 144Q140 96 174 68T261 40Q314 40 349 70T395 152Q400 172 400
214Q400 248 395 283Q388 333 352 360T262 387Q213 387 177 366T128 307Q125 298 117 298H81Q71 298 71 308V690Q71 700 81 700H414Q424 700 424 690V663Q424 653 414 653H128Q124 653 124 649L123 381Q123 379 124 379T128 380Q151 405 188 419T267 434Q336 434
385 400T446 303Q453 262 453 214Z" />
<glyph unicode="6" glyph-name="six" d="M454 283T454 213Q454 149 442 118Q423 59 378 26T265 -8Q195 -8 147 27T81 123Q71 157 71 215V530Q71 611 123 659T258 708Q339 708 389 662T439 539V529Q439 519 429 519H396Q386 519 386 529V536Q386 592 351 626T258
661Q200 661 162 625T124 528V366Q124 363 125 363T129 365Q152 402 187 417T268 433Q397 433 439 317Q454 283 454 213ZM401 162T401 213Q401 266 391 291Q380 334 347 360T262 386Q212 386 178 360T133 290Q124 260 124 211Q124 163 132 138Q142 94 176 67T263
40Q311 40 346 65T393 138Q401 162 401 213Z" />
<glyph unicode="7" glyph-name="seven" horiz-adv-x="467" d="M148 0T151 11L385 648Q386 650 385 651T382 653H91Q87 653 87 649V604Q87 594 77 594H51Q41 594 41 604V690Q41 700 51 700H433Q443 700 443 690V659Q443 655 441 647L208 8Q205 0 196 0H159Q148 0 151 11Z" />
<glyph unicode="8" glyph-name="eight" horiz-adv-x="517" d="M450 251T450 194Q450 122 420 73Q396 34 355 13T259 -8Q202 -8 160 14T94 79Q66 126 66 195Q66 249 86 294Q111 348 164 373Q170 375 165 378Q129 397 106 430Q74 473 74 530Q74 585 102 627Q125
666 166 687T259 709Q313 709 352 688T415 627Q441 584 441 530Q441 471 410 428Q389 398 353 379Q348 376 353 374Q408 349 432 291Q450 251 450 194ZM167 426T195 412T258 397Q293 397 321 412T368 454Q389 486 389 531Q389 564 372 596Q355 627 326 644T257
662Q219 662 189 644T144 595Q127 564 127 530Q127 487 150 452Q167 426 195 412ZM396 136T396 197Q396 245 382 279Q367 316 336 335T258 355Q170 355 137 284Q120 250 120 196Q120 138 143 98Q179 39 259 39Q336 39 371 95Q396 136 396 197Z" />
<glyph unicode="9" glyph-name="nine" horiz-adv-x="519" d="M448 543T448 485V170Q448 89 396 41T261 -8Q180 -8 130 38T80 161V171Q80 181 90 181H123Q133 181 133 171V164Q133 108 168 74T261 39Q319 39 357 75T395 172V334Q395 337 394 337T390 335Q367 298
332 283T251 267Q122 267 80 383Q65 418 65 487Q65 548 77 582Q96 641 141 674T254 708Q324 708 372 673T438 577Q448 543 448 485ZM307 314T341 340T386 410Q395 440 395 489Q395 537 387 562Q377 606 343 633T257 660Q208 660 174 635T127 562Q118 540 118 487Q118
434 128 409Q140 366 173 340T257 314Q307 314 341 340Z" />
<glyph unicode=":" glyph-name="colon" horiz-adv-x="332" d="M143 355T129 369T115 405Q115 427 129 441T165 455Q187 455 201 441T215 405Q215 383 201 369T165 355Q143 355 129 369ZM143 16T129 30T115 66Q115 88 129 102T165 116Q187 116 201 102T215 66Q215
44 201 30T165 16Q143 16 129 30Z" />
<glyph unicode=";" glyph-name="semicolon" horiz-adv-x="309" d="M135 355T119 370T103 408Q103 429 119 444T158 460Q179 460 196 445T213 408Q213 386 197 371T158 355Q135 355 119 370ZM112 -70T109 -67T107 -59L135 140Q136 149 145 149H176Q181 149 183
146T185 138L147 -61Q146 -70 136 -70H116Q112 -70 109 -67Z" />
<glyph unicode="&lt;" glyph-name="less" horiz-adv-x="504" d="M462 54T459 52T450 52L49 241Q42 245 42 252V286Q42 293 49 297L450 486Q452 487 455 487Q462 487 462 479V446Q462 439 455 435L100 272Q94 269 100 266L455 103Q462 100 462 92V59Q462 54 459 52Z" />
<glyph unicode="=" glyph-name="equal" horiz-adv-x="504" d="M42 404T42 414V440Q42 450 52 450H452Q462 450 462 440V414Q462 404 452 404H52Q42 404 42 414ZM42 448T42 458V484Q42 494 52 494H452Q462 494 462 484V458Q462 448 452 448H52Q42 448 42 458Z" />
<glyph unicode="&gt;" glyph-name="greater" horiz-adv-x="504" d="M52 51T49 51Q42 51 42 59V92Q42 100 49 103L404 266Q410 269 404 272L49 435Q42 439 42 446V479Q42 484 45 486T54 486L455 297Q462 293 462 286V252Q462 245 455 241L54 52Q52 51 49 51Z" />
<glyph unicode="?" glyph-name="question" horiz-adv-x="445" d="M177 195T177 205V270Q177 311 197 337T258 397Q287 420 304 437T334 480T346 539Q346 594 312 627T222 660Q166 660 131 627T96 538V504Q96 494 86 494L53 496Q43 496 43 506V538Q43 614 93 661T223
709Q303 709 351 663T399 538Q399 494 385 462T351 410T299 364Q264 335 248 316T232 267V205Q232 195 222 195H187Q177 195 177 205ZM182 3T168 17T154 53Q154 75 168 89T204 103Q226 103 240 89T254 53Q254 31 240 17T204 3Q182 3 168 17Z" />
<glyph unicode="@" glyph-name="at" horiz-adv-x="830" d="M545 606T614 569T722 466T760 316Q760 300 756 264Q744 175 700 125T590 74Q555 74 529 88T490 130Q488 135 485 130Q468 103 440 89T376 74Q324 74 292 100T254 169Q253 175 253 189Q253 216 259 256Q265
314 277 344Q292 387 328 412T411 438Q470 438 500 398Q502 396 503 396T505 399L508 424Q509 433 518 433H539Q544 433 547 430T549 422L521 208Q520 203 520 193Q520 157 540 134T595 111Q639 111 671 151T714 262Q718 286 718 314Q718 391 684 448T589 537T451
568Q366 568 288 530T161 413T111 223Q111 143 141 80T230 -19T371 -55Q421 -55 468 -43T541 -14Q544 -12 548 -12Q552 -12 555 -16L565 -28Q567 -30 567 -34Q567 -39 563 -42Q532 -66 477 -80T366 -94Q274 -94 207 -53T105 62T70 229Q70 348 126 433T270 562T455
606Q545 606 614 569ZM412 111T437 131T473 183Q479 198 482 224L489 279Q492 303 492 331Q491 362 470 382T414 402Q379 402 353 382T314 332Q309 321 306 307T299 256Q293 202 294 183Q296 151 318 131T378 111Q412 111 437 131Z" />
<glyph unicode="A" glyph-name="A" horiz-adv-x="590" d="M501 0T498 8L455 141Q454 144 451 144H139Q136 144 135 141L93 8Q90 0 81 0H46Q35 0 38 11L260 692Q263 700 272 700H317Q326 700 329 692L552 11L553 7Q553 0 544 0H510Q501 0 498 8ZM150 191T151 190T155
188H435Q437 188 438 189T439 193L298 628Q297 630 295 630T292 628L151 193Q150 191 151 190Z" />
<glyph unicode="B" glyph-name="B" horiz-adv-x="629" d="M436 364T436 363T438 361Q492 338 521 294T551 189Q551 101 496 51T349 0H112Q102 0 102 10V690Q102 700 112 700H342Q435 700 489 652T543 519Q543 463 516 424T438 365Q436 364 436 363ZM155 653T155
649V387Q155 383 159 383H342Q410 383 450 419T491 516Q491 578 451 615T342 653H159Q155 653 155 649ZM417 48T457 87T498 192Q498 259 456 298T344 338H159Q155 338 155 334V52Q155 48 159 48H349Q417 48 457 87Z" />
<glyph unicode="C" glyph-name="C" horiz-adv-x="607" d="M240 -9T188 18T108 94T79 208V493Q79 557 107 605T188 681T308 708Q375 708 427 682T507 607T536 496V495Q536 490 533 487T526 484L493 482Q483 482 483 492V495Q483 570 435 615T308 661Q228 661 180
616T132 495V205Q132 130 180 84T308 38Q387 38 435 84T483 205V207Q483 216 493 216L526 214Q536 214 536 205Q536 142 508 94T427 18T308 -9Q240 -9 188 18Z" />
<glyph unicode="D" glyph-name="D" horiz-adv-x="618" d="M102 0T102 10V690Q102 700 112 700H344Q440 700 496 650T552 512V188Q552 101 496 51T344 0H112Q102 0 102 10ZM155 47T159 47H347Q417 47 457 86T499 194V506Q499 574 459 613T347 653H159Q155 653 155
649V51Q155 47 159 47Z" />
<glyph unicode="E" glyph-name="E" horiz-adv-x="611" d="M548 653T538 653H159Q155 653 155 649V379Q155 375 159 375H428Q438 375 438 365V338Q438 328 428 328H159Q155 328 155 324V51Q155 47 159 47H538Q548 47 548 37V10Q548 0 538 0H112Q102 0 102 10V690Q102
700 112 700H538Q548 700 548 690V663Q548 653 538 653Z" />
<glyph unicode="F" glyph-name="F" horiz-adv-x="570" d="M547 653T537 653H159Q155 653 155 649V379Q155 375 159 375H427Q437 375 437 365V338Q437 328 427 328H159Q155 328 155 324V10Q155 0 145 0H112Q102 0 102 10V690Q102 700 112 700H537Q547 700 547 690V663Q547
653 537 653Z" />
<glyph unicode="G" glyph-name="G" horiz-adv-x="614" d="M240 -8T188 19T108 94T79 206V494Q79 558 107 606T188 681T308 708Q375 708 426 682T506 608T535 500V486Q535 476 525 476H492Q482 476 482 486V499Q482 571 434 616T308 661Q229 661 181 616T132 496V204Q132
130 180 85T309 39Q387 39 434 82T482 198V299Q482 303 478 303H322Q312 303 312 313V340Q312 350 322 350H525Q535 350 535 340V210Q535 109 473 51T308 -8Q240 -8 188 19Z" />
<glyph unicode="H" glyph-name="H" horiz-adv-x="661" d="M507 700T517 700H550Q560 700 560 690V10Q560 0 550 0H517Q507 0 507 10V324Q507 328 503 328H159Q155 328 155 324V10Q155 0 145 0H112Q102 0 102 10V690Q102 700 112 700H145Q155 700 155 690V379Q155
375 159 375H503Q507 375 507 379V690Q507 700 517 700Z" />
<glyph unicode="I" glyph-name="I" horiz-adv-x="258" d="M102 0T102 10V690Q102 700 112 700H145Q155 700 155 690V10Q155 0 145 0H112Q102 0 102 10Z" />
<glyph unicode="J" glyph-name="J" horiz-adv-x="576" d="M186 -8T136 17T59 89T32 196V275Q32 285 42 285H75Q85 285 85 275V196Q85 125 130 82T252 39Q328 39 374 82T420 196V690Q420 700 430 700H463Q473 700 473 690V196Q473 135 446 89T368 18T252 -8Q186
-8 136 17Z" />
<glyph unicode="K" glyph-name="K" horiz-adv-x="607" d="M102 0T102 10V690Q102 700 112 700H145Q155 700 155 690V337Q155 335 157 334T160 335L498 695Q503 700 510 700H547Q553 700 555 697T553 688L303 413Q301 411 303 407L576 12L578 7Q578 0 569 0H530Q522
0 518 6L267 369Q266 371 264 371T261 370L157 263Q155 261 155 258V10Q155 0 145 0H112Q102 0 102 10Z" />
<glyph unicode="L" glyph-name="L" horiz-adv-x="567" d="M102 0T102 10V690Q102 700 112 700H145Q155 700 155 690V51Q155 47 159 47H518Q528 47 528 37V10Q528 0 518 0H112Q102 0 102 10Z" />
<glyph unicode="M" glyph-name="M" horiz-adv-x="716" d="M562 700T569 700H603Q613 700 613 690V10Q613 0 603 0H570Q560 0 560 10V597Q560 600 558 600T555 598L379 326Q374 319 367 319H350Q343 319 338 326L160 597Q159 600 157 599T155 595V10Q155 0 145
0H112Q102 0 102 10V690Q102 700 112 700H147Q154 700 159 693L355 393Q356 392 358 392T361 393L557 693Q562 700 569 700Z" />
<glyph unicode="N" glyph-name="N" horiz-adv-x="679" d="M524 700T534 700H567Q577 700 577 690V10Q577 0 567 0H534Q527 0 522 7L160 594Q159 597 157 597T155 593V10Q155 0 145 0H112Q102 0 102 10V690Q102 700 112 700H146Q153 700 158 693L519 106Q520 103
522 103T524 107V690Q524 700 534 700Z" />
<glyph unicode="O" glyph-name="O" horiz-adv-x="622" d="M241 -8T189 20T108 100T79 219V481Q79 548 107 599T188 679T310 708Q379 708 432 680T514 600T543 481V219Q543 152 514 101T432 21T310 -8Q241 -8 189 20ZM391 38T440 87T490 217V482Q490 562 441 611T310
661Q230 661 181 612T132 482V217Q132 136 181 87T310 38Q391 38 440 87Z" />
<glyph unicode="P" glyph-name="P" horiz-adv-x="590" d="M447 702T499 650T551 511Q551 426 499 374T360 322H152Q148 322 148 318V10Q148 0 138 0H105Q95 0 95 10V692Q95 702 105 702H362Q447 702 499 650ZM421 367T459 406T498 510Q498 575 460 614T358 654H152Q148
654 148 650V371Q148 367 152 367H358Q421 367 459 406Z" />
<glyph unicode="Q" glyph-name="Q" horiz-adv-x="572" d="M352 708T402 681T481 603T509 488V209Q509 119 457 61T316 -7Q312 -7 312 -11V-110Q312 -120 302 -120H269Q259 -120 259 -110V-11Q259 -7 255 -7Q167 3 115 61T63 209V488Q63 553 91 603T169 680T286
708Q352 708 402 681ZM456 491Q456 568 410 614T286 661Q210 661 163 615T116 491V209Q116 133 163 86T286 39Q363 39 409 86T456 209V491Z" />
<glyph unicode="R" glyph-name="R" horiz-adv-x="612" d="M508 0T505 7L352 325Q351 328 348 328H159Q155 328 155 324V10Q155 0 145 0H112Q102 0 102 10V690Q102 700 112 700H364Q448 700 499 648T551 512Q551 441 512 393T407 332Q402 330 404 327L557 12Q558
10 558 7Q558 0 550 0H517Q508 0 505 7ZM155 653T155 649V376Q155 372 159 372H359Q421 372 459 411T498 512Q498 575 460 614T359 653H159Q155 653 155 649Z" />
<glyph unicode="S" glyph-name="S" horiz-adv-x="582" d="M185 -8T121 41T57 174V207Q57 217 67 217H98Q108 217 108 207V177Q108 115 159 77T299 39Q382 39 426 73T470 169Q470 206 451 233T391 285T276 340Q198 373 159 395T95 450T71 537Q71 619 127 663T284
708Q393 708 455 658T517 524V501Q517 491 507 491H474Q464 491 464 501V521Q464 584 416 622T281 661Q205 661 164 630T123 539Q123 499 142 474T196 431T306 382Q380 352 425 325T497 260T523 171Q523 90 463 41T295 -8Q185 -8 121 41Z" />
<glyph unicode="T" glyph-name="T" horiz-adv-x="565" d="M518 700T518 690V663Q518 653 508 653H308Q304 653 304 649V10Q304 0 294 0H261Q251 0 251 10V649Q251 653 247 653H57Q47 653 47 663V690Q47 700 57 700H508Q518 700 518 690Z" />
<glyph unicode="U" glyph-name="U" horiz-adv-x="653" d="M257 -8T205 19T123 97T94 212V690Q94 700 104 700H137Q147 700 147 690V210Q147 133 196 86T326 39Q407 39 456 86T505 210V690Q505 700 515 700H548Q558 700 558 690V212Q558 147 529 97T448 20T326
-8Q257 -8 205 19Z" />
<glyph unicode="V" glyph-name="V" horiz-adv-x="580" d="M262 0T259 8L38 689L37 693Q37 700 46 700H81Q90 700 93 692L287 82Q288 80 290 80T293 82L489 692Q492 700 501 700H534Q545 700 542 689L320 8Q317 0 308 0H271Q262 0 259 8Z" />
<glyph unicode="W" glyph-name="W" horiz-adv-x="879" d="M227 0T224 8L29 689L28 692Q28 700 38 700H72Q80 700 83 692L249 109Q250 107 251 107T254 109L408 691Q410 700 419 700H454Q463 700 465 691L624 109Q625 107 626 107T629 109L797 692Q800 700 808
700H840Q845 700 847 697T849 689L654 8Q651 0 643 0H608Q599 0 597 9L440 602Q439 604 438 604T435 602L279 9Q277 0 268 0H235Q227 0 224 8Z" />
<glyph unicode="X" glyph-name="X" horiz-adv-x="578" d="M42 0T41 3T42 12L256 347Q258 350 256 353L42 688Q40 692 40 694Q40 700 48 700H85Q92 700 97 693L286 395Q287 394 289 394T292 395L481 693Q486 700 493 700H529Q535 700 536 697T535 688L322 352Q321
349 322 346L535 12Q537 8 537 6Q537 0 529 0H493Q486 0 481 7L292 304Q291 306 289 306T286 304L97 7Q92 0 85 0H48Q42 0 41 3Z" />
<glyph unicode="Y" glyph-name="Y" horiz-adv-x="554" d="M251 0T251 10V318Q251 322 250 323L41 688Q39 692 39 694Q39 700 48 700H82Q89 700 94 693L274 379Q275 378 277 378T280 379L460 693Q465 700 472 700H506Q512 700 514 697T513 688L304 323Q303 322
303 318V10Q303 0 293 0H261Q251 0 251 10Z" />
<glyph unicode="Z" glyph-name="Z" horiz-adv-x="547" d="M48 0T48 10V42Q48 47 52 55L429 648Q430 649 429 651T426 653H58Q48 653 48 663V690Q48 700 58 700H480Q490 700 490 690V658Q490 653 486 645L110 52Q109 51 110 49T113 47H480Q490 47 490 37V10Q490
0 480 0H58Q48 0 48 10Z" />
<glyph unicode="[" glyph-name="bracketleft" horiz-adv-x="370" d="M32 -114T32 -104V758Q32 768 42 768H222Q232 768 232 758V730Q232 720 222 720H89Q85 720 85 716V-63Q85 -67 89 -67H223Q233 -67 233 -77V-104Q233 -114 223 -114H42Q32 -114 32 -104Z" />
<glyph unicode="\" glyph-name="backslash" horiz-adv-x="382" d="M347 7Q347 0 338 0H306Q297 0 294 8L83 689L82 693Q82 700 91 700H123Q132 700 135 692L346 11L347 7Z" />
<glyph unicode="]" glyph-name="bracketright" horiz-adv-x="370" d="M338 -114T328 -114H148Q138 -114 138 -104V-77Q138 -67 148 -67H281Q285 -67 285 -63V716Q285 720 281 720H148Q138 720 138 730V758Q138 768 148 768H328Q338 768 338 758V-104Q338 -114 328 -114Z" />
<glyph unicode="^" glyph-name="asciicircum" horiz-adv-x="444" d="M49 310T47 313T47 322L195 692Q198 700 206 700H238Q246 700 249 692L398 322L399 318Q399 310 390 310H363Q355 310 352 318L225 641Q224 644 222 644T219 641L92 318Q89 310 81 310H54Q49
310 47 313Z" />
<glyph unicode="_" glyph-name="underscore" horiz-adv-x="474" d="M32 0T32 10V34Q32 44 42 44H433Q443 44 443 34V10Q443 0 433 0H42Q32 0 32 10Z" />
<glyph unicode="`" glyph-name="grave" horiz-adv-x="186" d="M149 579T149 577Q149 571 140 571H117Q110 571 105 578L38 688Q36 692 36 694Q36 700 45 700H75Q84 700 87 693L147 583Q149 579 149 577Z" />
<glyph unicode="a" glyph-name="a" horiz-adv-x="506" d="M342 512T388 467T434 344V10Q434 0 424 0H391Q381 0 381 10V57Q381 59 380 60T376 59Q350 26 309 9T216 -8Q147 -8 99 27T51 134Q51 208 106 251T257 294H377Q381 294 381 298V343Q381 399 350 432T253
465Q202 465 169 444T128 388Q125 378 116 379L81 384Q70 386 72 392Q81 446 130 479T254 512Q342 512 388 467ZM288 38T334 69T381 155V246Q381 250 377 250H262Q191 250 148 220T104 137Q104 88 138 63T225 38Q288 38 334 69Z" />
<glyph unicode="b" glyph-name="b" horiz-adv-x="541" d="M466 354T468 325T470 251Q470 167 459 125Q442 64 395 28T280 -8Q236 -8 201 10T145 61Q143 63 142 63T140 59V10Q140 0 130 0H97Q87 0 87 10V690Q87 700 97 700H130Q140 700 140 690V444Q140 441 142
441T145 443Q166 476 201 494T280 512Q350 512 397 476T460 377Q466 354 468 325ZM411 153T414 176T417 252Q417 305 414 329T401 374Q389 414 355 439T274 465Q228 465 197 440T154 373Q147 353 144 329T141 251Q141 200 143 176T153 133Q164 91 195 65T275 39Q323
39 358 65T404 133Q411 153 414 176Z" />
<glyph unicode="c" glyph-name="c" horiz-adv-x="516" d="M199 -8T150 29T83 128Q70 176 70 253Q70 327 83 377Q99 438 149 475T270 512Q341 512 392 476T458 386Q462 372 464 358V356Q464 349 455 347L423 343H421Q414 343 412 352L409 366Q400 408 362 436T270
465Q215 465 179 436T132 359Q123 321 123 252Q123 182 132 146Q142 97 178 68T270 39Q324 39 362 67T409 139L410 144Q412 155 422 153L453 148Q463 146 462 137L458 119Q444 63 393 28T270 -8Q199 -8 150 29Z" />
<glyph unicode="d" glyph-name="d" horiz-adv-x="541" d="M401 700T411 700H444Q454 700 454 690V10Q454 0 444 0H411Q401 0 401 10V59Q401 62 400 62T396 61Q375 28 340 10T261 -8Q193 -8 146 28T82 125Q75 148 73 176T71 251Q71 296 73 325T81 377Q96 439 143
475T261 512Q305 512 340 494T396 443Q397 440 399 440T401 444V690Q401 700 411 700ZM395 152T397 176T400 251Q400 304 397 328T387 373Q376 414 345 439T267 465Q220 465 186 440T140 374Q131 355 128 331T124 252Q124 200 127 177T137 133Q147 91 182 65T266
39Q313 39 344 65T388 133Q395 152 397 176Z" />
<glyph unicode="e" glyph-name="e" horiz-adv-x="530" d="M322 39T355 60T408 120Q413 129 421 125L447 112Q456 107 452 99Q430 50 383 21T271 -8Q201 -8 152 26T85 119Q77 144 74 175T71 253Q71 302 72 327T79 373Q95 436 144 474T266 512Q348 512 397 470T458
352Q461 333 462 308T463 244Q463 234 453 234H127Q123 234 123 230Q123 166 128 145Q139 96 177 68T275 39Q322 39 355 60ZM125 342T123 283Q123 279 127 279H406Q410 279 410 283Q410 333 405 358Q394 406 357 435T266 465Q212 465 176 437T130 361Q125 342 123
283Z" />
<glyph unicode="f" glyph-name="f" horiz-adv-x="349" d="M212 653T191 625T169 534V508Q169 504 173 504H290Q300 504 300 494V465Q300 455 290 455H173Q169 455 169 451V10Q169 0 159 0H126Q116 0 116 10V451Q116 455 112 455H46Q36 455 36 465V494Q36 504 46
504H112Q116 504 116 508V536Q116 595 129 630T175 682T267 700H293Q303 700 303 690V663Q303 653 293 653H271Q212 653 191 625Z" />
<glyph unicode="g" glyph-name="g" horiz-adv-x="530" d="M399 504T409 504H442Q452 504 452 494V11Q452 -102 384 -153T192 -199Q182 -198 182 -188L183 -159Q183 -149 193 -149Q300 -153 349 -114T399 12V62Q399 65 398 65T394 64Q349 -5 257 -5Q192 -5 143
30T78 128Q67 169 67 251Q67 339 79 380Q95 439 142 475T255 512Q347 512 394 444Q395 442 397 443T399 446V494Q399 504 409 504ZM397 162T398 184T399 252Q399 298 398 320T394 359Q386 405 352 435T265 465Q213 465 178 435T129 359Q120 329 120 253Q120 179
129 147Q140 101 176 71T265 41Q319 41 352 71T394 147Q397 162 398 184Z" />
<glyph unicode="h" glyph-name="h" horiz-adv-x="537" d="M362 511T409 464T457 340V10Q457 0 447 0H414Q404 0 404 10V330Q404 389 368 426T274 464Q214 464 177 428T140 332V10Q140 0 130 0H97Q87 0 87 10V690Q87 700 97 700H130Q140 700 140 690V445Q140 442
141 442T144 443Q166 476 202 493T285 511Q362 511 409 464Z" />
<glyph unicode="i" glyph-name="i" horiz-adv-x="256" d="M106 605T92 619T78 655Q78 677 92 691T128 705Q150 705 164 691T178 655Q178 633 164 619T128 605Q106 605 92 619ZM99 1T99 11V495Q99 505 109 505H142Q152 505 152 495V11Q152 1 142 1H109Q99 1 99 11Z" />
<glyph unicode="j" glyph-name="j" horiz-adv-x="243" d="M93 605T79 619T65 655Q65 677 79 691T115 705Q137 705 151 691T165 655Q165 633 151 619T115 605Q93 605 79 619ZM-29 -209T-29 -199V-173Q-29 -163 -19 -163Q34 -162 61 -134T89 -55L88 494Q88 504 98
504H131Q141 504 141 494V-55Q141 -132 102 -170T-19 -209Q-29 -209 -29 -199Z" />
<glyph unicode="k" glyph-name="k" horiz-adv-x="492" d="M87 0T87 10V690Q87 700 97 700H130Q140 700 140 690V263Q140 261 141 260T145 261L376 499Q381 504 388 504H428Q434 504 435 501T433 492L306 356Q304 354 305 351L459 12L460 8Q460 0 451 0H416Q408
0 405 8L269 315Q267 319 264 316L142 190Q140 188 140 185V10Q140 0 130 0H97Q87 0 87 10Z" />
<glyph unicode="l" glyph-name="l" horiz-adv-x="226" d="M87 0T87 10V690Q87 700 97 700H130Q140 700 140 690V10Q140 0 130 0H97Q87 0 87 10Z" />
<glyph unicode="m" glyph-name="m" horiz-adv-x="827" d="M660 511T704 467T748 346V10Q748 0 738 0H706Q696 0 696 10V336Q696 395 662 429T572 464Q514 464 479 430T443 338V10Q443 0 433 0H401Q391 0 391 10V336Q391 395 357 429T268 464Q209 464 175 430T140
338V10Q140 0 130 0H97Q87 0 87 10V494Q87 504 97 504H130Q140 504 140 494V449Q140 447 142 446T145 447Q166 479 201 495T282 511Q334 511 371 489T428 425Q430 421 433 424Q454 467 494 489T587 511Q660 511 704 467Z" />
<glyph unicode="n" glyph-name="n" horiz-adv-x="537" d="M362 511T409 464T457 340V10Q457 0 447 0H414Q404 0 404 10V330Q404 389 368 426T274 464Q214 464 177 428T140 332V10Q140 0 130 0H97Q87 0 87 10V494Q87 504 97 504H130Q140 504 140 494V445Q140 442
141 442T144 443Q166 476 202 493T285 511Q362 511 409 464Z" />
<glyph unicode="o" glyph-name="o" horiz-adv-x="539" d="M199 -8T149 29T81 128Q70 168 70 253Q70 338 81 377Q99 439 148 475T270 512Q340 512 390 475T458 377Q464 354 466 326T468 253Q468 207 466 179T458 128Q441 66 391 29T269 -8Q199 -8 149 29ZM322 39T359
68T408 146Q415 173 415 252Q415 332 409 358Q398 407 361 436T269 465Q215 465 178 436T130 358Q123 327 123 252Q123 177 130 146Q141 97 178 68T269 39Q322 39 359 68Z" />
<glyph unicode="p" glyph-name="p" horiz-adv-x="548" d="M473 356T475 328T477 253Q477 207 475 179T467 127Q452 65 405 29T287 -8Q243 -8 209 9T153 60Q151 62 150 62T148 58V-186Q148 -196 138 -196H105Q95 -196 95 -186V494Q95 504 105 504H138Q148 504 148
494V446Q148 443 149 443T153 444Q174 477 208 494T287 512Q355 512 402 476T466 379Q473 356 475 328ZM410 135Q418 153 421 177T424 252Q424 304 421 327T411 371Q401 413 366 439T282 465Q235 465 204 439T161 371Q154 353 151 329T148 252Q148 199 151 175T161
131Q172 90 203 65T282 39Q328 39 361 62T406 124L410 135Z" />
<glyph unicode="q" glyph-name="q" horiz-adv-x="548" d="M401 504T411 504H444Q454 504 454 494V-186Q454 -196 444 -196H411Q401 -196 401 -186V60Q401 63 399 63T396 61Q375 28 340 10T261 -8Q191 -8 144 28T81 127Q75 150 73 178T71 253Q71 299 73 327T82
379Q99 440 146 476T261 512Q305 512 340 494T396 443Q398 441 399 441T401 445V494Q401 504 411 504ZM394 151T397 175T400 252Q400 304 398 328T388 371Q376 413 345 439T266 465Q217 465 182 439T137 371Q130 351 127 328T124 252Q124 201 127 177T138 135L142
124Q154 86 187 63T267 39Q313 39 344 64T387 131Q394 151 397 175Z" />
<glyph unicode="r" glyph-name="r" horiz-adv-x="359" d="M311 508T335 496Q343 493 341 483L332 451Q329 441 319 445Q299 453 269 452Q213 451 177 410T140 308V10Q140 0 130 0H97Q87 0 87 10V494Q87 504 97 504H130Q140 504 140 494V426Q140 423 141 423T144
425Q165 464 198 486T277 508Q311 508 335 496Z" />
<glyph unicode="s" glyph-name="s" horiz-adv-x="477" d="M190 -5T149 12T84 60T61 126V139Q61 149 71 149H102Q112 149 112 139V128Q112 91 149 65T243 38Q299 38 334 65T369 132Q369 160 351 178T309 205T235 230Q179 247 145 262T88 304T64 374Q64 435 112
471T240 508Q293 508 333 491T396 443T419 375V372Q419 362 409 362H378Q368 362 368 372V375Q368 413 333 438T239 464Q183 464 149 441T115 377Q115 339 146 320T245 281Q303 264 337 249T397 207T422 135Q422 72 374 34T244 -5Q190 -5 149 12Z" />
<glyph unicode="t" glyph-name="t" horiz-adv-x="359" d="M297 459T287 459H170Q166 459 166 455V139Q166 88 189 68T263 47H286Q296 47 296 37V10Q296 0 286 0L256 -1Q186 -1 151 26T114 125V455Q114 459 110 459H50Q40 459 40 469V494Q40 504 50 504H110Q114
504 114 508V622Q114 632 124 632H156Q166 632 166 622V508Q166 504 170 504H287Q297 504 297 494V469Q297 459 287 459Z" />
<glyph unicode="u" glyph-name="u" horiz-adv-x="535" d="M396 504T406 504H438Q448 504 448 494V10Q448 0 438 0H406Q396 0 396 10V59Q396 62 394 62T391 60Q370 27 335 10T251 -7Q177 -7 128 37T79 158V494Q79 504 89 504H121Q131 504 131 494V172Q131 112 166
76T261 40Q322 40 359 76T396 172V494Q396 504 406 504Z" />
<glyph unicode="v" glyph-name="v" horiz-adv-x="464" d="M204 0T201 8L35 493L34 497Q34 504 43 504H81Q90 504 93 496L229 82Q230 80 232 80T235 82L371 496Q374 504 383 504L420 503Q431 503 428 492L263 8Q260 0 251 0H213Q204 0 201 8Z" />
<glyph unicode="w" glyph-name="w" horiz-adv-x="705" d="M179 0T176 8L34 493L33 496Q33 504 43 504H77Q86 504 88 495L203 78Q204 76 205 76T208 78L324 496Q326 504 335 504H366Q374 504 377 496L495 79Q496 77 497 77T500 79L617 495Q619 504 628 504L661
503Q666 503 669 500T670 492L527 8Q524 0 516 0H482Q474 0 471 8L353 408Q352 410 351 410T348 408L233 8Q230 0 222 0H187Q179 0 176 8Z" />
<glyph unicode="x" glyph-name="x" horiz-adv-x="462" d="M33 0T31 4T33 12L200 249Q202 252 200 255L33 492Q31 494 31 498Q31 500 33 502T39 504H74Q82 504 86 498L227 296Q228 295 230 295T233 296L373 498Q377 504 385 504H423Q429 504 431 500T429 492L262
255Q261 252 262 249L429 12Q431 10 431 6Q431 4 429 2T423 0H387Q379 0 375 6L235 207Q234 209 232 209T229 207L88 6Q84 0 76 0H39Q33 0 31 4Z" />
<glyph unicode="y" glyph-name="y" horiz-adv-x="449" d="M52 -200T52 -190V-164Q52 -154 62 -154H66Q104 -153 125 -142T162 -99T199 -3Q201 1 199 3L28 493L27 497Q27 504 36 504H70Q79 504 82 496L224 72Q225 70 227 70T230 72L368 496Q371 504 380 504H414Q425
504 422 493L233 -51Q210 -116 190 -147T143 -189T66 -200H59Q52 -200 52 -190Z" />
<glyph unicode="z" glyph-name="z" horiz-adv-x="442" d="M36 0T36 10V42Q36 50 40 55L338 450Q340 452 339 453T336 455H50Q40 455 40 465V494Q40 504 50 504H394Q404 504 404 494V462Q404 454 400 449L99 54Q97 52 98 51T101 49H393Q403 49 403 39V10Q403 0
393 0H46Q36 0 36 10Z" />
<glyph unicode="{" glyph-name="braceleft" horiz-adv-x="283" d="M136 -114T114 -88T91 -3V216Q91 258 79 280T41 307Q32 309 32 317V343Q32 352 41 353Q67 358 79 379T91 443V656Q91 715 113 741T186 768H242Q252 768 252 758V730Q252 720 242 720H201Q172 720
158 702T144 643V442Q144 397 133 371T97 333Q92 331 97 328Q121 315 132 289T144 218V10Q144 -30 158 -48T201 -67H242Q252 -67 252 -77V-104Q252 -114 242 -114H186Q136 -114 114 -88Z" />
<glyph unicode="|" glyph-name="bar" horiz-adv-x="156" d="M52 -80T52 -70V750Q52 760 62 760H95Q105 760 105 750V-70Q105 -80 95 -80H62Q52 -80 52 -70Z" />
<glyph unicode="}" glyph-name="braceright" horiz-adv-x="283" d="M42 -114Q32 -114 32 -104V-77Q32 -67 42 -67H82Q112 -67 126 -49T140 10V218Q140 263 151 289T186 328Q191 331 186 333Q162 345 151 370T140 442V643Q140 683 126 701T82 720H42Q32 720 32
730V758Q32 768 42 768H97Q147 768 170 742T193 656V443Q193 401 205 380T243 353Q252 352 252 343V317Q252 309 243 307Q217 303 205 281T193 216V-3Q193 -61 170 -87T97 -114H42Z" />
<glyph unicode="~" glyph-name="asciitilde" horiz-adv-x="492" d="M312 239T291 247T236 275Q215 287 198 293T158 299Q110 299 81 260L79 256Q74 250 67 255L50 266Q42 272 46 279Q61 311 90 329T157 347Q182 347 201 341T244 321Q276 303 294 295T341 287Q363
287 377 297T409 328Q415 335 423 330L442 317Q450 311 446 304Q407 239 342 239Q312 239 291 247Z" />
<glyph unicode="&#xa0;" glyph-name="uni00A0" horiz-adv-x="200" />
<glyph unicode="&#xa1;" glyph-name="exclamdown" horiz-adv-x="313" d="M177 708T191 694T205 658Q205 636 191 622T155 608Q133 608 119 622T105 658Q105 680 119 694T155 708Q177 708 191 694ZM135 487T145 487H171Q181 487 181 477L185 22Q185 12 175 12H142Q132
12 132 22L135 477Q135 487 145 487Z" />
<glyph unicode="&#xa2;" glyph-name="cent" horiz-adv-x="516" d="M410 234Q412 245 422 243L453 238Q463 236 462 227L458 209Q445 156 399 121T286 82Q282 82 282 78V9Q282 -1 272 -1H244Q234 -1 234 9V81Q234 85 230 86Q174 96 136 131T83 218Q70 266 70 343Q70
417 83 467Q97 519 135 553T230 598Q234 599 234 603L233 674Q233 684 243 684H272Q282 684 282 674L281 606Q281 602 285 602Q351 598 398 562T458 476Q462 462 464 448V446Q464 439 455 437L423 433H421Q414 433 412 442L409 456Q400 498 362 526T270 555Q215
555 179 526T132 449Q123 411 123 342Q123 272 132 236Q142 187 178 158T270 129Q324 129 362 157T409 229L410 234Z" />
<glyph unicode="&#xa3;" glyph-name="sterling" horiz-adv-x="605" d="M198 46T203 46H559Q569 46 569 36V10Q569 0 559 0H142Q132 0 132 10V38Q132 46 139 50Q164 65 179 99T194 178V310Q194 314 190 314H112Q102 314 102 324V348Q102 358 112 358H190Q194 358
194 362V517Q194 607 246 657T391 708Q453 708 495 676T559 582L560 578Q560 572 552 570L520 564H517Q511 564 508 571Q493 618 463 640T388 662Q320 662 284 625T247 518V362Q247 358 251 358H445Q455 358 455 348V324Q455 314 445 314H251Q247 314 247 310V180Q247
139 235 106T201 51Q198 46 203 46Z" />
<glyph unicode="&#xa4;" glyph-name="currency" horiz-adv-x="508" d="M443 237T404 187Q402 184 405 181L470 116Q473 113 473 110Q473 106 469 102L449 84Q446 81 443 81Q439 81 435 85L372 147Q369 150 366 148Q316 109 250 109Q188 109 138 145Q135 147 132
144L73 85Q70 82 66 82T59 84L38 102Q31 110 37 116L98 176Q101 178 99 182Q56 235 56 301Q56 366 96 417Q98 420 95 423L31 487Q28 490 28 493Q28 497 32 501L52 519Q55 522 59 522Q63 522 66 518L128 455Q131 452 134 454Q184 493 250 493Q317 493 370 451Q373
449 376 452L441 518Q447 525 455 519L476 501Q484 494 477 487L408 419Q405 416 407 413Q443 364 443 301Q443 237 404 187ZM104 262T124 229T177 176T250 156Q289 156 322 175T376 228T396 301Q396 340 376 373T323 427T250 447Q211 447 178 427T124 374T104
301Q104 262 124 229Z" />
<glyph unicode="&#xa5;" glyph-name="yen" horiz-adv-x="689" d="M580 700T582 697T581 688L386 346Q385 344 386 343T389 341H512Q522 341 522 331V316Q522 306 512 306H376Q372 306 372 302V213Q372 209 376 209H512Q522 209 522 199V184Q522 174 512 174H376Q372
174 372 170V10Q372 0 362 0H329Q319 0 319 10V170Q319 174 315 174H174Q164 174 164 184V199Q164 209 174 209H315Q319 209 319 213V302Q319 306 315 306H174Q164 306 164 316V331Q164 341 174 341H302Q304 341 305 342T305 346L109 688Q107 692 107 694Q107 700
116 700H150Q157 700 162 693L342 379Q343 378 345 378T348 379L528 693Q533 700 540 700H574Q580 700 582 697Z" />
<glyph unicode="&#xa6;" glyph-name="brokenbar" horiz-adv-x="156" d="M52 397T52 407V750Q52 760 62 760H95Q105 760 105 750V407Q105 397 95 397H62Q52 397 52 407ZM52 -80T52 -70V273Q52 283 62 283H95Q105 283 105 273V-70Q105 -80 95 -80H62Q52 -80 52 -70Z" />
<glyph unicode="&#xa7;" glyph-name="section" horiz-adv-x="442" d="M151 -207T110 -164T68 -45V-27Q68 -17 78 -17H111Q121 -17 121 -27V-39Q121 -95 148 -128T222 -161Q267 -161 296 -128T325 -47Q325 -9 306 15T262 52T196 77Q152 92 124 109T78 157Q57 193
57 244Q57 301 83 341Q113 386 167 400Q170 401 170 402T167 404Q123 421 94 461T65 552Q65 593 84 628T140 685T222 707Q289 707 331 664T375 552V538Q375 528 365 528H332Q322 528 322 538V548Q322 597 294 629T222 661Q176 661 147 627T118 546Q118 499 150
470T244 421Q277 411 304 397T351 357Q384 317 384 254Q384 199 359 155Q330 105 280 96Q274 95 279 93Q325 74 352 37T379 -52Q379 -96 359 -131T302 -187T220 -207Q151 -207 110 -164ZM285 127T313 176Q331 205 331 248Q331 300 307 328Q273 370 221 370Q191
370 166 354T127 312Q110 285 110 244Q110 201 126 176Q159 127 219 127Q285 127 313 176Z" />
<glyph unicode="&#xa8;" glyph-name="dieresis" horiz-adv-x="328" d="M224 607T210 621T196 657Q196 679 210 693T246 707Q268 707 282 693T296 657Q296 635 282 621T246 607Q224 607 210 621ZM60 607T46 621T32 657Q32 679 46 693T82 707Q104 707 118 693T132
657Q132 635 118 621T82 607Q60 607 46 621Z" />
<glyph unicode="&#xa9;" glyph-name="copyright" horiz-adv-x="882" d="M337 -8T255 38T126 167T79 349Q79 451 125 533T254 661T440 708Q544 708 627 662T756 533T803 349Q803 249 756 167T627 39T440 -8Q337 -8 255 38ZM532 32T605 73T719 187T761 348Q761 439
720 512T606 626T440 668Q348 668 275 627T161 512T120 348Q120 259 161 187T275 74T440 32Q532 32 605 73ZM393 170T364 197T335 270V430Q335 475 364 502T442 529Q490 529 519 503T548 432V430Q548 421 538 421L523 422Q513 422 513 432V434Q513 462 493 479T442
497Q409 497 390 480T371 434V265Q371 236 390 219T442 202Q473 202 493 219T513 265V267Q513 272 516 275T523 278L538 279Q548 279 548 269V268Q548 224 519 197T442 170Q393 170 364 197Z" />
<glyph unicode="&#xaa;" glyph-name="ordfeminine" horiz-adv-x="323" d="M238 563Q242 563 242 567V594Q242 631 221 653T157 676Q125 676 104 663T77 628Q74 618 65 619L48 621Q37 623 39 632Q46 666 78 687T158 708Q216 708 247 678T279 597V380Q279 370 269
370H252Q242 370 242 380V403Q242 405 241 406T237 405Q221 385 195 375T136 365Q88 365 57 387T26 457Q26 506 62 534T162 563H238ZM182 395T212 416T242 474V528Q242 532 238 532H165Q118 532 90 514T62 460Q62 428 83 412T140 395Q182 395 212 416ZM25 295T35
295H277Q287 295 287 285V263Q287 253 277 253H35Q25 253 25 263V285Q25 295 35 295Z" />
<glyph unicode="&#xab;" glyph-name="guillemotleft" horiz-adv-x="548" d="M285 117T285 113Q285 107 277 107H245Q237 107 233 113L101 274Q98 277 98 281T101 288L233 449Q237 455 245 455H277Q283 455 285 452T283 443L151 284Q150 281 151 278L283 119Q285
117 285 113ZM440 117T440 113Q440 107 432 107H400Q392 107 388 113L256 274Q253 277 253 281T256 288L388 449Q392 455 400 455H432Q438 455 440 452T438 443L306 284Q305 281 306 278L438 119Q440 117 440 113Z" />
<glyph unicode="&#xac;" glyph-name="logicalnot" horiz-adv-x="504" d="M42 339T52 339H452Q462 339 462 329V181Q462 171 452 171H424Q414 171 414 181V289Q414 293 410 293H52Q42 293 42 303V329Q42 339 52 339Z" />
<glyph unicode="&#xad;" glyph-name="uni00AD" horiz-adv-x="391" d="M42 291T42 301V328Q42 338 52 338H339Q349 338 349 328V301Q349 291 339 291H52Q42 291 42 301Z" />
<glyph unicode="&#xae;" glyph-name="registered" horiz-adv-x="453" d="M280 715T324 689T395 619T421 522Q421 469 395 425T325 355T227 329Q173 329 129 354T58 424T32 522Q32 575 58 619T128 689T227 715Q280 715 324 689ZM271 359T308 381T368 440T390 522Q390
566 368 603T309 662T227 684Q182 684 145 663T85 604T63 522Q63 478 85 441T144 381T227 359Q271 359 308 381ZM288 541T281 529T261 512Q258 511 259 507L286 444L287 440Q287 432 278 432H269Q261 432 258 440L231 505Q230 508 227 508H208Q204 508 204 504V442Q204
432 194 432H187Q177 432 177 442V600Q177 610 187 610H237Q260 610 274 595T288 557Q288 541 281 529ZM204 586T204 582V533Q204 529 208 529H234Q246 529 253 536T261 557Q261 570 254 578T234 586H208Q204 586 204 582Z" />
<glyph unicode="&#xaf;" glyph-name="overscore" horiz-adv-x="262" d="M0 598T0 608V628Q0 638 10 638H252Q262 638 262 628V608Q262 598 252 598H10Q0 598 0 608Z" />
<glyph unicode="&#xb0;" glyph-name="degree" horiz-adv-x="382" d="M147 491T111 512T53 569T32 650Q32 694 53 730T110 787T191 808Q235 808 271 787T329 730T350 650Q350 606 329 570T272 512T191 491Q147 491 111 512ZM241 530T275 565T310 650Q310 700 276
734T191 769Q141 769 106 735T71 650Q71 600 106 565T191 530Q241 530 275 565Z" />
<glyph unicode="&#xb1;" glyph-name="plusminus" horiz-adv-x="504" d="M462 364T462 354V328Q462 318 452 318H279Q275 318 275 314V145Q275 135 265 135H239Q229 135 229 145V314Q229 318 225 318H52Q42 318 42 328V354Q42 364 52 364H225Q229 364 229 368V546Q229
556 239 556H265Q275 556 275 546V368Q275 364 279 364H452Q462 364 462 354ZM42 0T42 10V36Q42 46 52 46H452Q462 46 462 36V10Q462 0 452 0H52Q42 0 42 10Z" />
<glyph unicode="&#xb2;" glyph-name="uni00B2" horiz-adv-x="322" d="M37 449T37 459V477Q37 484 41 489Q93 550 176 655Q233 728 233 767Q233 799 211 818T154 838Q119 838 98 819T77 766V751Q77 741 67 741H46Q36 741 36 751V771Q37 817 70 845T154 874Q208
874 240 844T273 768Q273 717 217 644Q162 573 93 489Q90 484 95 484H277Q287 484 287 474V459Q287 449 277 449H47Q37 449 37 459Z" />
<glyph unicode="&#xb3;" glyph-name="uni00B3" horiz-adv-x="322" d="M279 621T279 575Q279 533 265 502Q251 473 224 458T160 442Q118 442 89 464T48 523Q43 536 41 564Q41 574 51 574H72Q82 574 82 564Q84 542 86 535Q91 509 111 494T160 478Q206 478 226 516Q239
542 239 575Q239 615 225 641Q205 679 160 679Q152 679 143 676Q141 675 138 675Q134 675 129 680L120 691Q117 694 117 698T120 705L223 826Q225 828 224 829T221 831H55Q45 831 45 841V857Q45 867 55 867H267Q277 867 277 857V838Q277 831 273 826L179 712Q177
710 178 709T182 707Q209 705 230 691T264 654Q279 621 279 575Z" />
<glyph unicode="&#xb4;" glyph-name="acute" horiz-adv-x="186" d="M39 571T37 574T38 583L99 693Q102 700 111 700H140Q146 700 148 697T147 688L80 578Q75 571 68 571H45Q39 571 37 574Z" />
<glyph unicode="&#xb5;" glyph-name="uni00B5" horiz-adv-x="544" d="M404 504T414 504H446Q456 504 456 494V10Q456 0 446 0H414Q404 0 404 10V60Q404 63 403 63T399 61Q378 28 343 11T259 -7Q192 -7 145 29Q140 32 140 27V-190Q140 -200 130 -200H97Q87 -200
87 -190V494Q87 504 97 504H130Q140 504 140 494V153Q145 101 179 71T268 40Q330 40 367 76T404 172V494Q404 504 414 504Z" />
<glyph unicode="&#xb6;" glyph-name="paragraph" horiz-adv-x="564" d="M454 700Q464 700 464 690V-190Q464 -200 454 -200H432Q422 -200 422 -190V654Q422 658 418 658H283Q279 658 279 654V-190Q279 -200 269 -200H245Q235 -200 235 -190V246Q235 250 231 250Q177
253 133 283T64 364T39 475Q39 537 66 588T142 670T249 700H454Z" />
<glyph unicode="&#xb7;" glyph-name="middot" horiz-adv-x="203" d="M80 226T66 240T52 276Q52 298 66 312T102 326Q124 326 138 312T152 276Q152 254 138 240T102 226Q80 226 66 240Z" />
<glyph unicode="&#xb8;" glyph-name="cedilla" horiz-adv-x="133" d="M0 -179T2 -168L5 -154Q6 -144 17 -147Q25 -149 39 -149Q62 -149 77 -137T92 -100Q92 -56 41 -12Q37 -9 37 -5Q37 0 45 0H60Q68 0 73 -4Q133 -51 133 -105Q133 -111 131 -125Q124 -156 101
-170T47 -185Q29 -185 9 -180Q0 -179 2 -168Z" />
<glyph unicode="&#xb9;" glyph-name="uni00B9" horiz-adv-x="182" d="M91 869T98 869H123Q133 869 133 859V459Q133 449 123 449H102Q92 449 92 459V825Q92 828 88 828L35 817H33Q24 817 24 826V837Q24 846 32 849L86 867Q91 869 98 869Z" />
<glyph unicode="&#xba;" glyph-name="ordmasculine" horiz-adv-x="342" d="M127 367T96 391T51 456Q42 486 42 538Q42 591 50 619Q61 660 93 684T172 708Q217 708 249 684T293 619Q300 593 300 538Q300 482 293 456Q282 415 250 391T172 367Q127 367 96 391ZM204
401T226 420T256 469Q261 489 261 538Q261 586 257 606Q249 637 226 655T171 674Q139 674 117 656T87 606Q82 587 82 538Q82 494 87 469Q95 438 117 420T172 401Q204 401 226 420ZM35 253T35 263V285Q35 295 45 295H297Q307 295 307 285V263Q307 253 297 253H45Q35
253 35 263Z" />
<glyph unicode="&#xbb;" glyph-name="guillemotright" horiz-adv-x="548" d="M112 107T110 110T112 119L244 278Q246 281 244 284L112 443Q110 445 110 449Q110 455 118 455H150Q158 455 162 449L294 288Q297 285 297 281T294 274L162 113Q158 107 150 107H118Q112
107 110 110ZM267 107T265 110T267 119L399 278Q401 281 399 284L267 443Q265 445 265 449Q265 455 273 455H305Q313 455 317 449L449 288Q452 285 452 281T449 274L317 113Q313 107 305 107H273Q267 107 265 110Z" />
<glyph unicode="&#xbc;" glyph-name="onequarter" horiz-adv-x="801" d="M91 700T98 700H123Q133 700 133 690V290Q133 280 123 280H102Q92 280 92 290V656Q92 659 88 659L35 648H33Q24 648 24 657V668Q24 677 32 680L86 698Q91 700 98 700ZM107 0T106 3T107 12L540
693Q545 700 552 700H574Q580 700 581 697T580 688L147 7Q142 0 135 0H113Q107 0 106 3ZM751 152T751 142V125Q751 115 741 115H722Q718 115 718 111V10Q718 0 708 0H687Q677 0 677 10V111Q677 115 673 115H499Q489 115 489 125V141Q489 146 492 153L613 413Q616
420 624 420H645Q650 420 652 417T653 408L536 157Q535 155 536 154T539 152H673Q677 152 677 156V249Q677 259 687 259H708Q718 259 718 249V156Q718 152 722 152H741Q751 152 751 142Z" />
<glyph unicode="&#xbd;" glyph-name="onehalf" horiz-adv-x="795" d="M91 700T98 700H123Q133 700 133 690V290Q133 280 123 280H102Q92 280 92 290V656Q92 659 88 659L35 648H33Q24 648 24 657V668Q24 677 32 680L86 698Q91 700 98 700ZM107 0T106 3T107 12L540
693Q545 700 552 700H574Q580 700 581 697T580 688L147 7Q142 0 135 0H113Q107 0 106 3ZM496 0T496 10V28Q496 35 500 40Q552 101 635 206Q692 279 692 318Q692 350 670 369T613 389Q578 389 557 370T536 317V302Q536 292 526 292H505Q495 292 495 302V322Q496
368 529 396T613 425Q667 425 699 395T732 319Q732 268 676 195Q621 124 552 40Q549 35 554 35H736Q746 35 746 25V10Q746 0 736 0H506Q496 0 496 10Z" />
<glyph unicode="&#xbe;" glyph-name="threequarters" horiz-adv-x="898" d="M279 462T279 416Q279 374 265 343Q251 314 224 299T160 283Q118 283 89 305T48 364Q43 377 41 405Q41 415 51 415H72Q82 415 82 405Q84 383 86 376Q91 350 111 335T160 319Q206 319
226 357Q239 383 239 416Q239 456 225 482Q205 520 160 520Q152 520 143 517Q141 516 138 516Q134 516 129 521L120 532Q117 535 117 539T120 546L223 667Q225 669 224 670T221 672H55Q45 672 45 682V698Q45 708 55 708H267Q277 708 277 698V679Q277 672 273 667L179
553Q177 551 178 550T182 548Q209 546 230 532T264 495Q279 462 279 416ZM209 0T208 3T209 12L642 693Q647 700 654 700H676Q682 700 683 697T682 688L249 7Q244 0 237 0H215Q209 0 208 3ZM853 152T853 142V125Q853 115 843 115H824Q820 115 820 111V10Q820 0 810
0H789Q779 0 779 10V111Q779 115 775 115H601Q591 115 591 125V141Q591 146 594 153L715 413Q718 420 726 420H747Q752 420 754 417T755 408L638 157Q637 155 638 154T641 152H775Q779 152 779 156V249Q779 259 789 259H810Q820 259 820 249V156Q820 152 824 152H843Q853
152 853 142Z" />
<glyph unicode="&#xbf;" glyph-name="questiondown" horiz-adv-x="445" d="M263 497T277 483T291 447Q291 425 277 411T241 397Q219 397 205 411T191 447Q191 469 205 483T241 497Q263 497 277 483ZM268 305T268 295V230Q268 189 248 163T187 103Q158 80 141 63T111
20T99 -39Q99 -94 133 -127T223 -160Q279 -160 314 -127T349 -38V-4Q349 6 359 6L392 4Q402 4 402 -6V-38Q402 -114 352 -161T222 -209Q142 -209 94 -163T45 -38Q45 6 59 37T93 89T145 136Q180 165 196 184T213 233V295Q213 305 223 305H258Q268 305 268 295Z"
/>
<glyph unicode="&#xc0;" glyph-name="Agrave" horiz-adv-x="590" d="M501 0T498 8L455 141Q454 144 451 144H139Q136 144 135 141L93 8Q90 0 81 0H46Q35 0 38 11L260 692Q263 700 272 700H317Q326 700 329 692L552 11L553 7Q553 0 544 0H510Q501 0 498 8ZM150
191T151 190T155 188H435Q437 188 438 189T439 193L298 628Q297 630 295 630T292 628L151 193Q150 191 151 190ZM315 775T315 773Q315 767 306 767H283Q276 767 271 774L204 884Q202 888 202 890Q202 896 211 896H241Q250 896 253 889L313 779Q315 775 315 773Z"
/>
<glyph unicode="&#xc1;" glyph-name="Aacute" horiz-adv-x="590" d="M501 0T498 8L455 141Q454 144 451 144H139Q136 144 135 141L93 8Q90 0 81 0H46Q35 0 38 11L260 692Q263 700 272 700H317Q326 700 329 692L552 11L553 7Q553 0 544 0H510Q501 0 498 8ZM150
191T151 190T155 188H435Q437 188 438 189T439 193L298 628Q297 630 295 630T292 628L151 193Q150 191 151 190ZM262 767T260 770T261 779L322 889Q325 896 334 896H363Q369 896 371 893T370 884L303 774Q298 767 291 767H268Q262 767 260 770Z" />
<glyph unicode="&#xc2;" glyph-name="Acircumflex" horiz-adv-x="590" d="M501 0T498 8L455 141Q454 144 451 144H139Q136 144 135 141L93 8Q90 0 81 0H46Q35 0 38 11L260 692Q263 700 272 700H317Q326 700 329 692L552 11L553 7Q553 0 544 0H510Q501 0 498 8ZM150
191T151 190T155 188H435Q437 188 438 189T439 193L298 628Q297 630 295 630T292 628L151 193Q150 191 151 190ZM180 770T178 773T180 782L261 890Q265 896 274 896H312Q321 896 325 890L407 782Q409 780 409 776Q409 774 407 772T401 770H375Q366 770 362 776L297
863Q296 865 294 865T291 863L225 776Q221 770 212 770H186Q180 770 178 773Z" />
<glyph unicode="&#xc3;" glyph-name="Atilde" horiz-adv-x="590" d="M501 0T498 8L455 141Q454 144 451 144H139Q136 144 135 141L93 8Q90 0 81 0H46Q35 0 38 11L260 692Q263 700 272 700H317Q326 700 329 692L552 11L553 7Q553 0 544 0H510Q501 0 498 8ZM150
191T151 190T155 188H435Q437 188 438 189T439 193L298 628Q297 630 295 630T292 628L151 193Q150 191 151 190ZM339 807T326 812T296 829Q279 840 269 845T247 850Q230 850 217 844T192 823Q186 813 178 821L165 832Q158 839 163 846Q195 892 245 892Q260 892
272 887T294 877T307 869Q326 858 336 853T357 848Q390 848 411 878Q417 887 425 880L436 870Q443 863 438 853Q424 830 402 819T356 807Q339 807 326 812Z" />
<glyph unicode="&#xc4;" glyph-name="Adieresis" horiz-adv-x="590" d="M501 0T498 8L455 141Q454 144 451 144H139Q136 144 135 141L93 8Q90 0 81 0H46Q35 0 38 11L260 692Q263 700 272 700H317Q326 700 329 692L552 11L553 7Q553 0 544 0H510Q501 0 498 8ZM150
191T151 190T155 188H435Q437 188 438 189T439 193L298 628Q297 630 295 630T292 628L151 193Q150 191 151 190ZM354 803T340 817T326 853Q326 875 340 889T376 903Q398 903 412 889T426 853Q426 831 412 817T376 803Q354 803 340 817ZM190 803T176 817T162 853Q162
875 176 889T212 903Q234 903 248 889T262 853Q262 831 248 817T212 803Q190 803 176 817Z" />
<glyph unicode="&#xc5;" glyph-name="Aring" horiz-adv-x="590" d="M501 0T498 8L455 141Q454 144 451 144H139Q136 144 135 141L93 8Q90 0 81 0H46Q35 0 38 11L260 692Q263 700 272 700H317Q326 700 329 692L552 11L553 7Q553 0 544 0H510Q501 0 498 8ZM150 191T151
190T155 188H435Q437 188 438 189T439 193L298 628Q297 630 295 630T292 628L151 193Q150 191 151 190ZM250 779T220 809T189 883Q189 927 219 957T294 987Q338 987 369 957T400 883Q400 840 369 810T294 779Q250 779 220 809ZM324 814T344 833T364 883Q364 912
344 932T294 952Q265 952 245 932T224 883Q224 854 244 834T294 814Q324 814 344 833Z" />
<glyph unicode="&#xc6;" glyph-name="AE" horiz-adv-x="911" d="M848 653T838 653H492Q488 653 488 649V379Q488 375 492 375H728Q738 375 738 365V338Q738 328 728 328H492Q488 328 488 324V51Q488 47 492 47H838Q848 47 848 37V10Q848 0 838 0H445Q435 0 435
10V140Q435 144 431 144H172Q169 144 167 141L97 7Q94 0 85 0H47Q42 0 40 3T40 12L403 693Q406 700 415 700H838Q848 700 848 690V663Q848 653 838 653ZM194 188T198 188H431Q435 188 435 192V636Q435 639 434 639T430 637L196 193Q194 188 198 188Z" />
<glyph unicode="&#xc7;" glyph-name="Ccedilla" horiz-adv-x="607" d="M536 489T533 487T526 484L493 482Q483 482 483 492V495Q483 570 435 615T308 661Q228 661 180 616T132 495V205Q132 130 180 84T308 38Q387 38 435 84T483 205V207Q483 216 493 216L526 214Q536
214 536 205Q536 142 508 94T427 18T308 -9H303Q301 -9 300 -11T301 -14Q353 -59 353 -106Q353 -118 350 -128Q343 -159 320 -173T266 -188Q247 -188 229 -183Q220 -182 222 -171L225 -157Q226 -147 237 -150Q251 -152 258 -152Q282 -152 296 -140T311 -101Q311
-60 261 -15L247 -3L245 -2Q168 15 124 71T79 208V493Q79 557 107 605T188 681T308 708Q375 708 427 682T507 607T536 496V491Q536 489 533 487Z" />
<glyph unicode="&#xc8;" glyph-name="Egrave" horiz-adv-x="611" d="M548 653T538 653H159Q155 653 155 649V379Q155 375 159 375H428Q438 375 438 365V338Q438 328 428 328H159Q155 328 155 324V51Q155 47 159 47H538Q548 47 548 37V10Q548 0 538 0H112Q102 0
102 10V690Q102 700 112 700H538Q548 700 548 690V663Q548 653 538 653ZM341 775T341 773Q341 767 332 767H309Q302 767 297 774L230 884Q228 888 228 890Q228 896 237 896H267Q276 896 279 889L339 779Q341 775 341 773Z" />
<glyph unicode="&#xc9;" glyph-name="Eacute" horiz-adv-x="611" d="M548 653T538 653H159Q155 653 155 649V379Q155 375 159 375H428Q438 375 438 365V338Q438 328 428 328H159Q155 328 155 324V51Q155 47 159 47H538Q548 47 548 37V10Q548 0 538 0H112Q102 0
102 10V690Q102 700 112 700H538Q548 700 548 690V663Q548 653 538 653ZM288 767T286 770T287 779L348 889Q351 896 360 896H389Q395 896 397 893T396 884L329 774Q324 767 317 767H294Q288 767 286 770Z" />
<glyph unicode="&#xca;" glyph-name="Ecircumflex" horiz-adv-x="611" d="M548 653T538 653H159Q155 653 155 649V379Q155 375 159 375H428Q438 375 438 365V338Q438 328 428 328H159Q155 328 155 324V51Q155 47 159 47H538Q548 47 548 37V10Q548 0 538 0H112Q102
0 102 10V690Q102 700 112 700H538Q548 700 548 690V663Q548 653 538 653ZM206 770T204 773T206 782L287 890Q291 896 300 896H338Q347 896 351 890L433 782Q435 780 435 776Q435 774 433 772T427 770H401Q392 770 388 776L323 863Q322 865 320 865T317 863L251
776Q247 770 238 770H212Q206 770 204 773Z" />
<glyph unicode="&#xcb;" glyph-name="Edieresis" horiz-adv-x="611" d="M548 653T538 653H159Q155 653 155 649V379Q155 375 159 375H428Q438 375 438 365V338Q438 328 428 328H159Q155 328 155 324V51Q155 47 159 47H538Q548 47 548 37V10Q548 0 538 0H112Q102
0 102 10V690Q102 700 112 700H538Q548 700 548 690V663Q548 653 538 653ZM381 803T367 817T353 853Q353 875 367 889T403 903Q425 903 439 889T453 853Q453 831 439 817T403 803Q381 803 367 817ZM217 803T203 817T189 853Q189 875 203 889T239 903Q261 903 275
889T289 853Q289 831 275 817T239 803Q217 803 203 817Z" />
<glyph unicode="&#xcc;" glyph-name="Igrave" horiz-adv-x="258" d="M102 0T102 10V690Q102 700 112 700H145Q155 700 155 690V10Q155 0 145 0H112Q102 0 102 10ZM150 775T150 773Q150 767 141 767H118Q111 767 106 774L39 884Q37 888 37 890Q37 896 46 896H76Q85
896 88 889L148 779Q150 775 150 773Z" />
<glyph unicode="&#xcd;" glyph-name="Iacute" horiz-adv-x="258" d="M102 0T102 10V690Q102 700 112 700H145Q155 700 155 690V10Q155 0 145 0H112Q102 0 102 10ZM97 767T95 770T96 779L157 889Q160 896 169 896H198Q204 896 206 893T205 884L138 774Q133 767
126 767H103Q97 767 95 770Z" />
<glyph unicode="&#xce;" glyph-name="Icircumflex" horiz-adv-x="258" d="M102 0T102 10V690Q102 700 112 700H145Q155 700 155 690V10Q155 0 145 0H112Q102 0 102 10ZM15 770T13 773T15 782L96 890Q100 896 109 896H147Q156 896 160 890L242 782Q244 780 244
776Q244 774 242 772T236 770H210Q201 770 197 776L132 863Q131 865 129 865T126 863L60 776Q56 770 47 770H21Q15 770 13 773Z" />
<glyph unicode="&#xcf;" glyph-name="Idieresis" horiz-adv-x="258" d="M102 0T102 10V690Q102 700 112 700H145Q155 700 155 690V10Q155 0 145 0H112Q102 0 102 10ZM189 803T175 817T161 853Q161 875 175 889T211 903Q233 903 247 889T261 853Q261 831 247 817T211
803Q189 803 175 817ZM25 803T11 817T-3 853Q-3 875 11 889T47 903Q69 903 83 889T97 853Q97 831 83 817T47 803Q25 803 11 817Z" />
<glyph unicode="&#xd0;" glyph-name="Eth" horiz-adv-x="687" d="M509 700T564 650T620 512V188Q620 101 565 51T413 0H181Q171 0 171 10V341Q171 345 167 345H112Q102 345 102 355V375Q102 385 112 385H167Q171 385 171 389V690Q171 700 181 700H413Q509 700
564 650ZM567 506Q567 574 527 613T416 653H228Q224 653 224 649V389Q224 385 228 385H356Q366 385 366 375V355Q366 345 356 345H228Q224 345 224 341V51Q224 47 228 47H416Q486 47 526 86T567 194V506Z" />
<glyph unicode="&#xd1;" glyph-name="Ntilde" horiz-adv-x="679" d="M524 700T534 700H567Q577 700 577 690V10Q577 0 567 0H534Q527 0 522 7L160 594Q159 597 157 597T155 593V10Q155 0 145 0H112Q102 0 102 10V690Q102 700 112 700H146Q153 700 158 693L519
106Q520 103 522 103T524 107V690Q524 700 534 700ZM384 807T371 812T341 829Q324 840 314 845T292 850Q275 850 262 844T237 823Q231 813 223 821L210 832Q203 839 208 846Q240 892 290 892Q305 892 317 887T339 877T352 869Q371 858 381 853T402 848Q435 848
456 878Q462 887 470 880L481 870Q488 863 483 853Q469 830 447 819T401 807Q384 807 371 812Z" />
<glyph unicode="&#xd2;" glyph-name="Ograve" horiz-adv-x="622" d="M241 -8T189 20T108 100T79 219V481Q79 548 107 599T188 679T310 708Q379 708 432 680T514 600T543 481V219Q543 152 514 101T432 21T310 -8Q241 -8 189 20ZM391 38T440 87T490 217V482Q490
562 441 611T310 661Q230 661 181 612T132 482V217Q132 136 181 87T310 38Q391 38 440 87ZM331 775T331 773Q331 767 322 767H299Q292 767 287 774L220 884Q218 888 218 890Q218 896 227 896H257Q266 896 269 889L329 779Q331 775 331 773Z" />
<glyph unicode="&#xd3;" glyph-name="Oacute" horiz-adv-x="622" d="M241 -8T189 20T108 100T79 219V481Q79 548 107 599T188 679T310 708Q379 708 432 680T514 600T543 481V219Q543 152 514 101T432 21T310 -8Q241 -8 189 20ZM391 38T440 87T490 217V482Q490
562 441 611T310 661Q230 661 181 612T132 482V217Q132 136 181 87T310 38Q391 38 440 87ZM278 767T276 770T277 779L338 889Q341 896 350 896H379Q385 896 387 893T386 884L319 774Q314 767 307 767H284Q278 767 276 770Z" />
<glyph unicode="&#xd4;" glyph-name="Ocircumflex" horiz-adv-x="622" d="M241 -8T189 20T108 100T79 219V481Q79 548 107 599T188 679T310 708Q379 708 432 680T514 600T543 481V219Q543 152 514 101T432 21T310 -8Q241 -8 189 20ZM391 38T440 87T490 217V482Q490
562 441 611T310 661Q230 661 181 612T132 482V217Q132 136 181 87T310 38Q391 38 440 87ZM196 770T194 773T196 782L277 890Q281 896 290 896H328Q337 896 341 890L423 782Q425 780 425 776Q425 774 423 772T417 770H391Q382 770 378 776L313 863Q312 865 310
865T307 863L241 776Q237 770 228 770H202Q196 770 194 773Z" />
<glyph unicode="&#xd5;" glyph-name="Otilde" horiz-adv-x="622" d="M241 -8T189 20T108 100T79 219V481Q79 548 107 599T188 679T310 708Q379 708 432 680T514 600T543 481V219Q543 152 514 101T432 21T310 -8Q241 -8 189 20ZM391 38T440 87T490 217V482Q490
562 441 611T310 661Q230 661 181 612T132 482V217Q132 136 181 87T310 38Q391 38 440 87ZM355 807T342 812T312 829Q295 840 285 845T263 850Q246 850 233 844T208 823Q202 813 194 821L181 832Q174 839 179 846Q211 892 261 892Q276 892 288 887T310 877T323
869Q342 858 352 853T373 848Q406 848 427 878Q433 887 441 880L452 870Q459 863 454 853Q440 830 418 819T372 807Q355 807 342 812Z" />
<glyph unicode="&#xd6;" glyph-name="Odieresis" horiz-adv-x="622" d="M241 -8T189 20T108 100T79 219V481Q79 548 107 599T188 679T310 708Q379 708 432 680T514 600T543 481V219Q543 152 514 101T432 21T310 -8Q241 -8 189 20ZM391 38T440 87T490 217V482Q490
562 441 611T310 661Q230 661 181 612T132 482V217Q132 136 181 87T310 38Q391 38 440 87ZM370 803T356 817T342 853Q342 875 356 889T392 903Q414 903 428 889T442 853Q442 831 428 817T392 803Q370 803 356 817ZM206 803T192 817T178 853Q178 875 192 889T228
903Q250 903 264 889T278 853Q278 831 264 817T228 803Q206 803 192 817Z" />
<glyph unicode="&#xd7;" glyph-name="multiply" horiz-adv-x="416" d="M371 456T371 452T368 445L245 323Q242 320 245 317L365 197Q368 194 368 190T365 183L346 165Q339 158 332 165L213 284Q210 287 207 284L84 162Q81 159 77 159T70 162L51 181Q48 184 48
188T51 195L174 317Q177 320 174 323L49 448Q46 451 46 455T49 462L67 481Q70 484 74 484T81 481L206 356Q209 353 212 356L335 478Q338 481 342 481T349 478L368 459Q371 456 371 452Z" />
<glyph unicode="&#xd8;" glyph-name="Oslash" horiz-adv-x="622" d="M562 692T557 684L510 612Q509 609 510 606Q543 555 543 481V219Q543 152 514 101T432 21T310 -8Q212 -8 150 48Q147 51 145 47L105 -14Q100 -23 92 -17L66 0Q59 6 63 13L112 88Q114 91 112
94Q79 145 79 219V481Q79 548 108 599T189 679T310 708Q408 708 472 653Q475 650 477 654L515 712Q517 716 521 717T529 715L554 698Q562 692 557 684ZM132 177T144 147Q145 142 149 146L444 603Q446 606 444 609Q421 634 387 647T310 661Q230 661 181 612T132
482V217Q132 177 144 147ZM490 522T478 553Q477 558 473 554L177 97Q176 94 177 91Q225 38 310 38Q391 38 440 87T490 217V482Q490 522 478 553Z" />
<glyph unicode="&#xd9;" glyph-name="Ugrave" horiz-adv-x="653" d="M257 -8T205 19T123 97T94 212V690Q94 700 104 700H137Q147 700 147 690V210Q147 133 196 86T326 39Q407 39 456 86T505 210V690Q505 700 515 700H548Q558 700 558 690V212Q558 147 529 97T448
20T326 -8Q257 -8 205 19ZM347 775T347 773Q347 767 338 767H315Q308 767 303 774L236 884Q234 888 234 890Q234 896 243 896H273Q282 896 285 889L345 779Q347 775 347 773Z" />
<glyph unicode="&#xda;" glyph-name="Uacute" horiz-adv-x="653" d="M257 -8T205 19T123 97T94 212V690Q94 700 104 700H137Q147 700 147 690V210Q147 133 196 86T326 39Q407 39 456 86T505 210V690Q505 700 515 700H548Q558 700 558 690V212Q558 147 529 97T448
20T326 -8Q257 -8 205 19ZM294 767T292 770T293 779L354 889Q357 896 366 896H395Q401 896 403 893T402 884L335 774Q330 767 323 767H300Q294 767 292 770Z" />
<glyph unicode="&#xdb;" glyph-name="Ucircumflex" horiz-adv-x="653" d="M257 -8T205 19T123 97T94 212V690Q94 700 104 700H137Q147 700 147 690V210Q147 133 196 86T326 39Q407 39 456 86T505 210V690Q505 700 515 700H548Q558 700 558 690V212Q558 147 529
97T448 20T326 -8Q257 -8 205 19ZM212 770T210 773T212 782L293 890Q297 896 306 896H344Q353 896 357 890L439 782Q441 780 441 776Q441 774 439 772T433 770H407Q398 770 394 776L329 863Q328 865 326 865T323 863L257 776Q253 770 244 770H218Q212 770 210 773Z"
/>
<glyph unicode="&#xdc;" glyph-name="Udieresis" horiz-adv-x="653" d="M257 -8T205 19T123 97T94 212V690Q94 700 104 700H137Q147 700 147 690V210Q147 133 196 86T326 39Q407 39 456 86T505 210V690Q505 700 515 700H548Q558 700 558 690V212Q558 147 529 97T448
20T326 -8Q257 -8 205 19ZM386 803T372 817T358 853Q358 875 372 889T408 903Q430 903 444 889T458 853Q458 831 444 817T408 803Q386 803 372 817ZM222 803T208 817T194 853Q194 875 208 889T244 903Q266 903 280 889T294 853Q294 831 280 817T244 803Q222 803
208 817Z" />
<glyph unicode="&#xdd;" glyph-name="Yacute" horiz-adv-x="554" d="M251 0T251 10V318Q251 322 250 323L41 688Q39 692 39 694Q39 700 48 700H82Q89 700 94 693L274 379Q275 378 277 378T280 379L460 693Q465 700 472 700H506Q512 700 514 697T513 688L304 323Q303
322 303 318V10Q303 0 293 0H261Q251 0 251 10ZM245 766T243 769T244 778L305 888Q308 895 317 895H346Q352 895 354 892T353 883L286 773Q281 766 274 766H251Q245 766 243 769Z" />
<glyph unicode="&#xde;" glyph-name="Thorn" horiz-adv-x="564" d="M421 539T473 487T525 349Q525 293 501 251T433 185T334 161H152Q148 161 148 157V10Q148 0 138 0H105Q95 0 95 10V690Q95 700 105 700H138Q148 700 148 690V543Q148 539 152 539H336Q421 539
473 487ZM394 206T433 245T472 348Q472 414 433 453T331 492H152Q148 492 148 488V210Q148 206 152 206H331Q394 206 433 245Z" />
<glyph unicode="&#xdf;" glyph-name="germandbls" horiz-adv-x="553" d="M87 0T87 10V517Q88 607 140 658T282 709Q371 709 423 659T476 521Q476 468 452 430T384 374Q382 373 382 372T384 370Q430 351 456 305T483 194Q483 102 428 51T272 0H203Q193 0 193 10V36Q193
46 203 46H275Q349 46 389 85T430 199Q430 270 394 309T292 350H230Q220 350 220 360V383Q220 393 230 393H292Q355 393 389 426T423 521Q423 588 387 625T283 663Q219 663 180 626T140 520V10Q140 0 130 0H97Q87 0 87 10Z" />
<glyph unicode="&#xe0;" glyph-name="agrave" horiz-adv-x="506" d="M342 512T388 467T434 344V10Q434 0 424 0H391Q381 0 381 10V57Q381 59 380 60T376 59Q350 26 309 9T216 -8Q147 -8 99 27T51 134Q51 208 106 251T257 294H377Q381 294 381 298V343Q381 399
350 432T253 465Q202 465 169 444T128 388Q125 378 116 379L81 384Q70 386 72 392Q81 446 130 479T254 512Q342 512 388 467ZM288 38T334 69T381 155V246Q381 250 377 250H262Q191 250 148 220T104 137Q104 88 138 63T225 38Q288 38 334 69ZM274 579T274 577Q274
571 265 571H242Q235 571 230 578L163 688Q161 692 161 694Q161 700 170 700H200Q209 700 212 693L272 583Q274 579 274 577Z" />
<glyph unicode="&#xe1;" glyph-name="aacute" horiz-adv-x="506" d="M342 512T388 467T434 344V10Q434 0 424 0H391Q381 0 381 10V57Q381 59 380 60T376 59Q350 26 309 9T216 -8Q147 -8 99 27T51 134Q51 208 106 251T257 294H377Q381 294 381 298V343Q381 399
350 432T253 465Q202 465 169 444T128 388Q125 378 116 379L81 384Q70 386 72 392Q81 446 130 479T254 512Q342 512 388 467ZM288 38T334 69T381 155V246Q381 250 377 250H262Q191 250 148 220T104 137Q104 88 138 63T225 38Q288 38 334 69ZM221 571T219 574T220
583L281 693Q284 700 293 700H322Q328 700 330 697T329 688L262 578Q257 571 250 571H227Q221 571 219 574Z" />
<glyph unicode="&#xe2;" glyph-name="acircumflex" horiz-adv-x="506" d="M342 512T388 467T434 344V10Q434 0 424 0H391Q381 0 381 10V57Q381 59 380 60T376 59Q350 26 309 9T216 -8Q147 -8 99 27T51 134Q51 208 106 251T257 294H377Q381 294 381 298V343Q381
399 350 432T253 465Q202 465 169 444T128 388Q125 378 116 379L81 384Q70 386 72 392Q81 446 130 479T254 512Q342 512 388 467ZM288 38T334 69T381 155V246Q381 250 377 250H262Q191 250 148 220T104 137Q104 88 138 63T225 38Q288 38 334 69ZM139 574T137 577T139
586L220 694Q224 700 233 700H271Q280 700 284 694L366 586Q368 584 368 580Q368 578 366 576T360 574H334Q325 574 321 580L256 667Q255 669 253 669T250 667L184 580Q180 574 171 574H145Q139 574 137 577Z" />
<glyph unicode="&#xe3;" glyph-name="atilde" horiz-adv-x="506" d="M342 512T388 467T434 344V10Q434 0 424 0H391Q381 0 381 10V57Q381 59 380 60T376 59Q350 26 309 9T216 -8Q147 -8 99 27T51 134Q51 208 106 251T257 294H377Q381 294 381 298V343Q381 399
350 432T253 465Q202 465 169 444T128 388Q125 378 116 379L81 384Q70 386 72 392Q81 446 130 479T254 512Q342 512 388 467ZM288 38T334 69T381 155V246Q381 250 377 250H262Q191 250 148 220T104 137Q104 88 138 63T225 38Q288 38 334 69ZM298 611T285 616T255
633Q238 644 228 649T206 654Q189 654 176 648T151 627Q145 617 137 625L124 636Q117 643 122 650Q154 696 204 696Q219 696 231 691T253 681T266 673Q285 662 295 657T316 652Q349 652 370 682Q376 691 384 684L395 674Q402 667 397 657Q383 634 361 623T315 611Q298
611 285 616Z" />
<glyph unicode="&#xe4;" glyph-name="adieresis" horiz-adv-x="506" d="M342 512T388 467T434 344V10Q434 0 424 0H391Q381 0 381 10V57Q381 59 380 60T376 59Q350 26 309 9T216 -8Q147 -8 99 27T51 134Q51 208 106 251T257 294H377Q381 294 381 298V343Q381 399
350 432T253 465Q202 465 169 444T128 388Q125 378 116 379L81 384Q70 386 72 392Q81 446 130 479T254 512Q342 512 388 467ZM288 38T334 69T381 155V246Q381 250 377 250H262Q191 250 148 220T104 137Q104 88 138 63T225 38Q288 38 334 69ZM313 607T299 621T285
657Q285 679 299 693T335 707Q357 707 371 693T385 657Q385 635 371 621T335 607Q313 607 299 621ZM149 607T135 621T121 657Q121 679 135 693T171 707Q193 707 207 693T221 657Q221 635 207 621T171 607Q149 607 135 621Z" />
<glyph unicode="&#xe5;" glyph-name="aring" horiz-adv-x="506" d="M342 512T388 467T434 344V10Q434 0 424 0H391Q381 0 381 10V57Q381 59 380 60T376 59Q350 26 309 9T216 -8Q147 -8 99 27T51 134Q51 208 106 251T257 294H377Q381 294 381 298V343Q381 399 350
432T253 465Q202 465 169 444T128 388Q125 378 116 379L81 384Q70 386 72 392Q81 446 130 479T254 512Q342 512 388 467ZM288 38T334 69T381 155V246Q381 250 377 250H262Q191 250 148 220T104 137Q104 88 138 63T225 38Q288 38 334 69ZM209 583T179 613T148 687Q148
731 178 761T253 791Q297 791 328 761T359 687Q359 644 328 614T253 583Q209 583 179 613ZM283 618T303 637T323 687Q323 716 303 736T253 756Q224 756 204 736T183 687Q183 658 203 638T253 618Q283 618 303 637Z" />
<glyph unicode="&#xe6;" glyph-name="ae" horiz-adv-x="831" d="M149 -8T100 25T51 131Q51 204 105 244T257 285H377Q381 285 381 289V340Q381 397 349 431T251 465Q201 465 167 444T125 388Q123 377 114 379L81 384Q71 386 72 395Q83 448 131 480T252 512Q313
512 353 487T410 420Q412 415 415 420Q434 460 476 486T573 512Q641 512 691 475T756 376Q761 357 762 334T764 250Q764 239 754 239H438Q434 239 434 235L435 156Q437 101 478 72T579 42Q628 42 661 63T711 123Q715 132 724 129L748 119Q757 115 754 106Q735 55
687 24T574 -8Q516 -8 472 15T410 81Q409 83 408 83T406 82Q387 39 336 16T222 -8Q149 -8 100 25ZM434 285T438 285H708Q712 285 712 289Q710 343 707 358Q698 405 662 435T572 465Q519 465 483 436T438 358Q434 338 434 289Q434 285 438 285ZM288 36T334 66T381
153V235Q381 239 377 239H262Q190 239 147 213T104 135Q104 87 138 62T226 36Q288 36 334 66Z" />
<glyph unicode="&#xe7;" glyph-name="ccedilla" horiz-adv-x="516" d="M410 144Q412 155 422 153L453 148Q463 146 462 137L458 119Q445 66 399 32T287 -8Q281 -8 285 -12Q338 -56 338 -105Q338 -117 335 -127Q328 -158 305 -172T251 -187Q233 -187 213 -182Q204
-181 206 -170L209 -156Q210 -146 221 -149Q229 -151 243 -151Q266 -151 281 -139T296 -100Q296 -77 280 -53T236 -7Q235 -5 231 -5Q175 5 136 40T83 128Q70 176 70 253Q70 327 83 377Q99 438 149 475T270 512Q341 512 392 476T458 386Q462 372 464 358V356Q464
349 455 347L423 343H421Q414 343 412 352L409 366Q400 408 362 436T270 465Q215 465 179 436T132 359Q123 321 123 252Q123 182 132 146Q142 97 178 68T270 39Q324 39 362 67T409 139L410 144Z" />
<glyph unicode="&#xe8;" glyph-name="egrave" horiz-adv-x="530" d="M322 39T355 60T408 120Q413 129 421 125L447 112Q456 107 452 99Q430 50 383 21T271 -8Q201 -8 152 26T85 119Q77 144 74 175T71 253Q71 302 72 327T79 373Q95 436 144 474T266 512Q348 512
397 470T458 352Q461 333 462 308T463 244Q463 234 453 234H127Q123 234 123 230Q123 166 128 145Q139 96 177 68T275 39Q322 39 355 60ZM125 342T123 283Q123 279 127 279H406Q410 279 410 283Q410 333 405 358Q394 406 357 435T266 465Q212 465 176 437T130 361Q125
342 123 283ZM286 579T286 577Q286 571 277 571H254Q247 571 242 578L175 688Q173 692 173 694Q173 700 182 700H212Q221 700 224 693L284 583Q286 579 286 577Z" />
<glyph unicode="&#xe9;" glyph-name="eacute" horiz-adv-x="530" d="M322 39T355 60T408 120Q413 129 421 125L447 112Q456 107 452 99Q430 50 383 21T271 -8Q201 -8 152 26T85 119Q77 144 74 175T71 253Q71 302 72 327T79 373Q95 436 144 474T266 512Q348 512
397 470T458 352Q461 333 462 308T463 244Q463 234 453 234H127Q123 234 123 230Q123 166 128 145Q139 96 177 68T275 39Q322 39 355 60ZM125 342T123 283Q123 279 127 279H406Q410 279 410 283Q410 333 405 358Q394 406 357 435T266 465Q212 465 176 437T130 361Q125
342 123 283ZM232 571T230 574T231 583L292 693Q295 700 304 700H333Q339 700 341 697T340 688L273 578Q268 571 261 571H238Q232 571 230 574Z" />
<glyph unicode="&#xea;" glyph-name="ecircumflex" horiz-adv-x="530" d="M322 39T355 60T408 120Q413 129 421 125L447 112Q456 107 452 99Q430 50 383 21T271 -8Q201 -8 152 26T85 119Q77 144 74 175T71 253Q71 302 72 327T79 373Q95 436 144 474T266 512Q348
512 397 470T458 352Q461 333 462 308T463 244Q463 234 453 234H127Q123 234 123 230Q123 166 128 145Q139 96 177 68T275 39Q322 39 355 60ZM125 342T123 283Q123 279 127 279H406Q410 279 410 283Q410 333 405 358Q394 406 357 435T266 465Q212 465 176 437T130
361Q125 342 123 283ZM150 574T148 577T150 586L231 694Q235 700 244 700H282Q291 700 295 694L377 586Q379 584 379 580Q379 578 377 576T371 574H345Q336 574 332 580L267 667Q266 669 264 669T261 667L195 580Q191 574 182 574H156Q150 574 148 577Z" />
<glyph unicode="&#xeb;" glyph-name="edieresis" horiz-adv-x="530" d="M322 39T355 60T408 120Q413 129 421 125L447 112Q456 107 452 99Q430 50 383 21T271 -8Q201 -8 152 26T85 119Q77 144 74 175T71 253Q71 302 72 327T79 373Q95 436 144 474T266 512Q348
512 397 470T458 352Q461 333 462 308T463 244Q463 234 453 234H127Q123 234 123 230Q123 166 128 145Q139 96 177 68T275 39Q322 39 355 60ZM125 342T123 283Q123 279 127 279H406Q410 279 410 283Q410 333 405 358Q394 406 357 435T266 465Q212 465 176 437T130
361Q125 342 123 283ZM325 607T311 621T297 657Q297 679 311 693T347 707Q369 707 383 693T397 657Q397 635 383 621T347 607Q325 607 311 621ZM161 607T147 621T133 657Q133 679 147 693T183 707Q205 707 219 693T233 657Q233 635 219 621T183 607Q161 607 147
621Z" />
<glyph unicode="&#xec;" glyph-name="igrave" horiz-adv-x="205" d="M76 0T76 10V494Q76 504 86 504H119Q129 504 129 494V10Q129 0 119 0H86Q76 0 76 10ZM124 579T124 577Q124 571 115 571H92Q85 571 80 578L13 688Q11 692 11 694Q11 700 20 700H50Q59 700 62
693L122 583Q124 579 124 577Z" />
<glyph unicode="&#xed;" glyph-name="iacute" horiz-adv-x="205" d="M76 0T76 10V494Q76 504 86 504H119Q129 504 129 494V10Q129 0 119 0H86Q76 0 76 10ZM70 571T68 574T69 583L130 693Q133 700 142 700H171Q177 700 179 697T178 688L111 578Q106 571 99 571H76Q70
571 68 574Z" />
<glyph unicode="&#xee;" glyph-name="icircumflex" horiz-adv-x="205" d="M76 0T76 10V494Q76 504 86 504H119Q129 504 129 494V10Q129 0 119 0H86Q76 0 76 10ZM-12 574T-14 577T-12 586L69 694Q73 700 82 700H120Q129 700 133 694L215 586Q217 584 217 580Q217
578 215 576T209 574H183Q174 574 170 580L105 667Q104 669 102 669T99 667L33 580Q29 574 20 574H-6Q-12 574 -14 577Z" />
<glyph unicode="&#xef;" glyph-name="idieresis" horiz-adv-x="205" d="M76 0T76 10V494Q76 504 86 504H119Q129 504 129 494V10Q129 0 119 0H86Q76 0 76 10ZM163 607T149 621T135 657Q135 679 149 693T185 707Q207 707 221 693T235 657Q235 635 221 621T185 607Q163
607 149 621ZM-1 607T-15 621T-29 657Q-29 679 -15 693T21 707Q43 707 57 693T71 657Q71 635 57 621T21 607Q-1 607 -15 621Z" />
<glyph unicode="&#xf0;" glyph-name="eth" horiz-adv-x="526" d="M454 314T454 246Q454 196 453 171T446 124Q430 65 380 29T261 -8Q193 -8 145 28T79 124Q73 146 72 172T70 247Q70 296 71 321T79 367Q92 420 133 454T232 491L251 492Q287 492 321 482T376 451Q378
449 379 450T379 453Q359 515 305 581Q303 585 300 583L212 555L208 554Q202 554 199 562L195 577V580Q195 586 202 589L272 610Q274 611 274 613T273 616Q238 652 196 688Q192 691 192 695Q192 700 200 700H238Q245 700 250 695Q288 662 321 629Q323 627 326 628L400
651L404 652Q410 652 413 644L417 629V626Q417 620 410 617L355 600Q350 598 352 595Q439 494 449 353Q454 314 454 246ZM398 155T399 183T400 245Q400 279 399 306T395 348Q386 395 350 424T261 453Q209 453 174 424T129 348Q123 323 123 245Q123 165 129 141Q139
93 174 64T261 35Q313 35 349 64T395 141Q398 155 399 183Z" />
<glyph unicode="&#xf1;" glyph-name="ntilde" horiz-adv-x="537" d="M362 511T409 464T457 340V10Q457 0 447 0H414Q404 0 404 10V330Q404 389 368 426T274 464Q214 464 177 428T140 332V10Q140 0 130 0H97Q87 0 87 10V494Q87 504 97 504H130Q140 504 140 494V445Q140
442 141 442T144 443Q166 476 202 493T285 511Q362 511 409 464ZM314 611T301 616T271 633Q254 644 244 649T222 654Q205 654 192 648T167 627Q161 617 153 625L140 636Q133 643 138 650Q170 696 220 696Q235 696 247 691T269 681T282 673Q301 662 311 657T332
652Q365 652 386 682Q392 691 400 684L411 674Q418 667 413 657Q399 634 377 623T331 611Q314 611 301 616Z" />
<glyph unicode="&#xf2;" glyph-name="ograve" horiz-adv-x="533" d="M199 -8T149 29T81 128Q70 168 70 253Q70 338 81 377Q99 439 148 475T270 512Q340 512 390 475T458 377Q464 354 466 326T468 253Q468 207 466 179T458 128Q441 66 391 29T269 -8Q199 -8 149
29ZM322 39T359 68T408 146Q415 173 415 252Q415 332 409 358Q398 407 361 436T269 465Q215 465 178 436T130 358Q123 327 123 252Q123 177 130 146Q141 97 178 68T269 39Q322 39 359 68ZM287 579T287 577Q287 571 278 571H255Q248 571 243 578L176 688Q174 692
174 694Q174 700 183 700H213Q222 700 225 693L285 583Q287 579 287 577Z" />
<glyph unicode="&#xf3;" glyph-name="oacute" horiz-adv-x="533" d="M199 -8T149 29T81 128Q70 168 70 253Q70 338 81 377Q99 439 148 475T270 512Q340 512 390 475T458 377Q464 354 466 326T468 253Q468 207 466 179T458 128Q441 66 391 29T269 -8Q199 -8 149
29ZM322 39T359 68T408 146Q415 173 415 252Q415 332 409 358Q398 407 361 436T269 465Q215 465 178 436T130 358Q123 327 123 252Q123 177 130 146Q141 97 178 68T269 39Q322 39 359 68ZM234 571T232 574T233 583L294 693Q297 700 306 700H335Q341 700 343 697T342
688L275 578Q270 571 263 571H240Q234 571 232 574Z" />
<glyph unicode="&#xf4;" glyph-name="ocircumflex" horiz-adv-x="533" d="M199 -8T149 29T81 128Q70 168 70 253Q70 338 81 377Q99 439 148 475T270 512Q340 512 390 475T458 377Q464 354 466 326T468 253Q468 207 466 179T458 128Q441 66 391 29T269 -8Q199 -8
149 29ZM322 39T359 68T408 146Q415 173 415 252Q415 332 409 358Q398 407 361 436T269 465Q215 465 178 436T130 358Q123 327 123 252Q123 177 130 146Q141 97 178 68T269 39Q322 39 359 68ZM152 574T150 577T152 586L233 694Q237 700 246 700H284Q293 700 297
694L379 586Q381 584 381 580Q381 578 379 576T373 574H347Q338 574 334 580L269 667Q268 669 266 669T263 667L197 580Q193 574 184 574H158Q152 574 150 577Z" />
<glyph unicode="&#xf5;" glyph-name="otilde" horiz-adv-x="533" d="M199 -8T149 29T81 128Q70 168 70 253Q70 338 81 377Q99 439 148 475T270 512Q340 512 390 475T458 377Q464 354 466 326T468 253Q468 207 466 179T458 128Q441 66 391 29T269 -8Q199 -8 149
29ZM322 39T359 68T408 146Q415 173 415 252Q415 332 409 358Q398 407 361 436T269 465Q215 465 178 436T130 358Q123 327 123 252Q123 177 130 146Q141 97 178 68T269 39Q322 39 359 68ZM311 611T298 616T268 633Q251 644 241 649T219 654Q202 654 189 648T164
627Q158 617 150 625L137 636Q130 643 135 650Q167 696 217 696Q232 696 244 691T266 681T279 673Q298 662 308 657T329 652Q362 652 383 682Q389 691 397 684L408 674Q415 667 410 657Q396 634 374 623T328 611Q311 611 298 616Z" />
<glyph unicode="&#xf6;" glyph-name="odieresis" horiz-adv-x="533" d="M199 -8T149 29T81 128Q70 168 70 253Q70 338 81 377Q99 439 148 475T270 512Q340 512 390 475T458 377Q464 354 466 326T468 253Q468 207 466 179T458 128Q441 66 391 29T269 -8Q199 -8
149 29ZM322 39T359 68T408 146Q415 173 415 252Q415 332 409 358Q398 407 361 436T269 465Q215 465 178 436T130 358Q123 327 123 252Q123 177 130 146Q141 97 178 68T269 39Q322 39 359 68ZM326 607T312 621T298 657Q298 679 312 693T348 707Q370 707 384 693T398
657Q398 635 384 621T348 607Q326 607 312 621ZM162 607T148 621T134 657Q134 679 148 693T184 707Q206 707 220 693T234 657Q234 635 220 621T184 607Q162 607 148 621Z" />
<glyph unicode="&#xf7;" glyph-name="divide" horiz-adv-x="504" d="M231 446T217 460T203 494Q203 513 217 527T251 541Q271 541 285 527T300 494Q300 474 286 460T251 446Q231 446 217 460ZM42 306T42 316V342Q42 352 52 352H452Q462 352 462 342V316Q462 306
452 306H52Q42 306 42 316ZM231 134T217 148T203 182Q203 202 217 216T251 230Q271 230 285 216T300 182Q300 163 286 149T251 134Q231 134 217 148Z" />
<glyph unicode="&#xf8;" glyph-name="oslash" horiz-adv-x="527" d="M465 337T465 253Q465 168 454 128Q437 66 387 29T266 -8Q195 -8 143 30Q140 33 138 30L107 -16Q105 -20 101 -21T93 -19L70 -1Q62 5 67 13L103 66Q105 69 103 72Q87 97 78 128Q66 168 66 253Q66
333 77 377Q95 439 145 475T266 512Q329 512 379 481Q383 479 384 482L414 527Q416 531 420 532T428 530L452 512Q460 506 455 498L421 448Q420 445 421 442Q443 415 454 377Q465 337 465 253ZM128 137T134 121Q135 116 139 120L352 435Q354 439 351 440Q314 465
265 465Q211 465 174 436T126 358Q120 332 120 252Q120 172 126 146Q128 137 134 121ZM411 174T411 252Q411 332 405 358Q397 384 391 395Q388 399 385 396L170 76Q168 72 171 71Q209 39 266 39Q319 39 356 68T405 146Q411 174 411 252Z" />
<glyph unicode="&#xf9;" glyph-name="ugrave" horiz-adv-x="537" d="M396 504T406 504H438Q448 504 448 494V10Q448 0 438 0H406Q396 0 396 10V59Q396 62 394 62T391 60Q370 27 335 10T251 -7Q177 -7 128 37T79 158V494Q79 504 89 504H121Q131 504 131 494V172Q131
112 166 76T261 40Q322 40 359 76T396 172V494Q396 504 406 504ZM289 579T289 577Q289 571 280 571H257Q250 571 245 578L178 688Q176 692 176 694Q176 700 185 700H215Q224 700 227 693L287 583Q289 579 289 577Z" />
<glyph unicode="&#xfa;" glyph-name="uacute" horiz-adv-x="537" d="M396 504T406 504H438Q448 504 448 494V10Q448 0 438 0H406Q396 0 396 10V59Q396 62 394 62T391 60Q370 27 335 10T251 -7Q177 -7 128 37T79 158V494Q79 504 89 504H121Q131 504 131 494V172Q131
112 166 76T261 40Q322 40 359 76T396 172V494Q396 504 406 504ZM236 571T234 574T235 583L296 693Q299 700 308 700H337Q343 700 345 697T344 688L277 578Q272 571 265 571H242Q236 571 234 574Z" />
<glyph unicode="&#xfb;" glyph-name="ucircumflex" horiz-adv-x="537" d="M396 504T406 504H438Q448 504 448 494V10Q448 0 438 0H406Q396 0 396 10V59Q396 62 394 62T391 60Q370 27 335 10T251 -7Q177 -7 128 37T79 158V494Q79 504 89 504H121Q131 504 131 494V172Q131
112 166 76T261 40Q322 40 359 76T396 172V494Q396 504 406 504ZM154 574T152 577T154 586L235 694Q239 700 248 700H286Q295 700 299 694L381 586Q383 584 383 580Q383 578 381 576T375 574H349Q340 574 336 580L271 667Q270 669 268 669T265 667L199 580Q195
574 186 574H160Q154 574 152 577Z" />
<glyph unicode="&#xfc;" glyph-name="udieresis" horiz-adv-x="537" d="M396 504T406 504H438Q448 504 448 494V10Q448 0 438 0H406Q396 0 396 10V59Q396 62 394 62T391 60Q370 27 335 10T251 -7Q177 -7 128 37T79 158V494Q79 504 89 504H121Q131 504 131 494V172Q131
112 166 76T261 40Q322 40 359 76T396 172V494Q396 504 406 504ZM329 607T315 621T301 657Q301 679 315 693T351 707Q373 707 387 693T401 657Q401 635 387 621T351 607Q329 607 315 621ZM165 607T151 621T137 657Q137 679 151 693T187 707Q209 707 223 693T237
657Q237 635 223 621T187 607Q165 607 151 621Z" />
<glyph unicode="&#xfd;" glyph-name="yacute" horiz-adv-x="449" d="M52 -200T52 -190V-164Q52 -154 62 -154H66Q104 -153 125 -142T162 -99T199 -3Q201 1 199 3L28 493L27 497Q27 504 36 504H70Q79 504 82 496L224 72Q225 70 227 70T230 72L368 496Q371 504 380
504H414Q425 504 422 493L233 -51Q210 -116 190 -147T143 -189T66 -200H59Q52 -200 52 -190ZM192 573T190 576T191 585L252 695Q255 702 264 702H293Q299 702 301 699T300 690L233 580Q228 573 221 573H198Q192 573 190 576Z" />
<glyph unicode="&#xfe;" glyph-name="thorn" horiz-adv-x="537" d="M464 356T465 329T467 251Q467 202 466 176T459 128Q445 67 397 30T283 -8Q236 -8 201 11T145 66Q143 68 142 68T140 65V-190Q140 -200 130 -200H97Q87 -200 87 -190V690Q87 700 97 700H130Q140
700 140 690V440Q140 437 141 437T145 439Q165 474 199 493T281 512Q349 512 396 475T458 379Q464 356 465 329ZM409 162T410 181T412 252Q412 305 411 324T406 359Q397 405 360 435T271 465Q219 465 185 436T143 360L141 348L140 344V157Q140 154 141 153Q141
147 142 145Q151 99 184 69T271 39Q324 39 361 69T406 145Q409 162 410 181Z" />
<glyph unicode="&#xff;" glyph-name="ydieresis" horiz-adv-x="449" d="M52 -200T52 -190V-164Q52 -154 62 -154H66Q104 -153 125 -142T162 -99T199 -3Q201 1 199 3L28 493L27 497Q27 504 36 504H70Q79 504 82 496L224 72Q225 70 227 70T230 72L368 496Q371 504
380 504H414Q425 504 422 493L233 -51Q210 -116 190 -147T143 -189T66 -200H59Q52 -200 52 -190ZM285 609T271 623T257 659Q257 681 271 695T307 709Q329 709 343 695T357 659Q357 637 343 623T307 609Q285 609 271 623ZM121 609T107 623T93 659Q93 681 107 695T143
709Q165 709 179 695T193 659Q193 637 179 623T143 609Q121 609 107 623Z" />
<glyph unicode="&#x2013;" glyph-name="endash" horiz-adv-x="444" d="M42 258T42 268V296Q42 306 52 306H392Q402 306 402 296V268Q402 258 392 258H52Q42 258 42 268Z" />
<glyph unicode="&#x2014;" glyph-name="emdash" horiz-adv-x="692" d="M42 259T42 269V296Q42 306 52 306H641Q651 306 651 296V269Q651 259 641 259H52Q42 259 42 269Z" />
<glyph unicode="&#x2018;" glyph-name="quoteleft" horiz-adv-x="124" d="M7 501T5 504T5 513L77 692Q80 700 88 700H112Q123 700 120 689L59 509Q56 501 47 501H12Q7 501 5 504Z" />
<glyph unicode="&#x2019;" glyph-name="quoteright" horiz-adv-x="124" d="M117 700T119 697T119 688L47 509Q44 501 36 501H12Q1 501 4 512L65 692Q68 700 77 700H112Q117 700 119 697Z" />
<glyph unicode="&#x201a;" glyph-name="quotesinglbase" horiz-adv-x="600" d="M78 -74T76 -71T74 -63L121 145Q123 154 132 154H160Q165 154 167 151T169 143L115 -65Q114 -74 104 -74H83Q78 -74 76 -71Z" />
<glyph unicode="&#x201c;" glyph-name="quotedblleft" horiz-adv-x="242" d="M7 501T5 504T4 513L74 692Q77 700 85 700H108Q119 700 116 689L58 509Q55 501 46 501H12Q7 501 5 504ZM129 501T127 504T126 513L196 692Q199 700 207 700H230Q241 700 238 689L180
509Q177 501 168 501H134Q129 501 127 504Z" />
<glyph unicode="&#x201d;" glyph-name="quotedblright" horiz-adv-x="242" d="M113 700T115 697T116 688L46 509Q43 501 35 501H12Q1 501 4 512L62 692Q65 700 74 700H108Q113 700 115 697ZM235 700T237 697T238 688L168 509Q165 501 157 501H134Q123 501 126
512L184 692Q187 700 196 700H230Q235 700 237 697Z" />
<glyph unicode="&#x201e;" glyph-name="quotedblbase" horiz-adv-x="247" d="M113 127T115 124T116 115L46 -64Q43 -72 35 -72H12Q1 -72 4 -61L62 119Q65 127 74 127H108Q113 127 115 124ZM235 127T237 124T238 115L168 -64Q165 -72 157 -72H134Q123 -72 126 -61L184
119Q187 127 196 127H230Q235 127 237 124Z" />
<glyph unicode="&#x2022;" glyph-name="bullet" horiz-adv-x="307" d="M108 153T75 186T42 265Q42 311 74 343T154 376Q199 376 232 344T265 265Q265 219 232 186T154 153Q108 153 75 186Z" />
<glyph unicode="&#x2039;" glyph-name="guilsinglleft" horiz-adv-x="370" d="M260 117T260 113Q260 107 252 107H221Q213 107 209 113L77 274Q74 277 74 281T77 288L209 449Q213 455 221 455H252Q258 455 260 452T258 443L127 284Q126 281 127 278L258 119Q260
117 260 113Z" />
<glyph unicode="&#x203a;" glyph-name="guilsinglright" horiz-adv-x="400" d="M112 107T110 110T112 119L244 278Q246 281 244 284L112 443Q110 445 110 449Q110 455 118 455H150Q158 455 162 449L294 288Q297 285 297 281T294 274L162 113Q158 107 150 107H118Q112
107 110 110Z" />
</font>
</defs>
</svg>
